↑↓torrent.by
Поиск
Логин:  Регистрация
Пароль:

Воздушное ограбление / Зліт / Lift (2024) WEB-DL-HEVC 2160p | 4K | HDR | D | Netflix | UKR

download Скачать торрент-файл   magnet Магнитная ссылка Размер: 19.20 GB Добавлен: 2024-02-05 17:00
Пиры будут получены из сети DHT
Последний сидер был замечен 2024-02-05 17:00
Информация о фильме Название: Воздушное ограбление Оригинальное название: Lift Год выхода: 2024 Жанр: боевик, триллер, драма, комедия, криминал Режиссер: Ф. Гэри Грей В ролях: Кевин Харт, Гугу Эмбата-Ро, Сэм Уортингтон, Винсент Д’Онофрио, Урсула Корберо, Билли Магнуссен, Yun Jee Kim, Вивеик Калра, Жан Рено, Джейкоб Баталон О фильме: Профессиональный вор с командой опытных подельников пытается совершить невероятное ограбление и украсть 500 миллионов золотом из сейфа в самолете на высоте 12 км. Страна: США Студия: 6th & Idaho Productions, Genre Films, Genre Pictures, Hartbeat Productions, Marzano Films Продолжительность: 01:46:43 Перевод: Профессиональный дублированный | Postmodern / Netflix (Украинский) Файл Кодек: H.265 Качество: WEB-DL 2160p Видео: HEVC, HDR10, 3840x2160 (16:9), 24.000 fps, 24.3 Mb/s, 10 bit Аудио 1: E-AC3, 48.0 kHz, 6 ch, 640 kb/s | UKR Аудио 2: E-AC3 JOC, 48.0 kHz, 6 ch, 768 kb/s | ENG Субтитры: украинские (forced, full), английские (forced, full, SDH) Трейлер
[+] MIGeneral Unique ID : 144707724970668741627197143960832085189 (0x6CDDB1AE9AF8D413A7BD4015D60E8CC5) Complete name : Lift.(2024).WEB-DL.2160p.HDR.Ukr.Eng..mkv Format : Matroska Format version : Version 4 File size : 19.2 GiB Duration : 1 h 46 min Overall bit rate : 25.7 Mb/s Movie name : Lift (2024) Encoded date : UTC 2024-01-30 12:40:43 Writing application : mkvmerge v82.0 ('I'm The President') 64-bit Writing library : libebml v1.4.5 + libmatroska v1.7.1 Cover : Yes Attachments : Cover.jpg Video ID : 1 Format : HEVC Format/Info : High Efficiency Video Coding Format profile : Main 10@L5.1@High HDR format : SMPTE ST 2086, HDR10 compatible Codec ID : V_MPEGH/ISO/HEVC Duration : 1 h 46 min Bit rate : 24.3 Mb/s Width : 3 840 pixels Height : 2 160 pixels Display aspect ratio : 16:9 Frame rate mode : Constant Frame rate : 24.000 FPS Color space : YUV Chroma subsampling : 4:2:0 (Type 2) Bit depth : 10 bits Bits/(Pixel*Frame) : 0.122 Stream size : 18.1 GiB (95%) Default : Yes Forced : No Color range : Limited Color primaries : BT.2020 Transfer characteristics : PQ Matrix coefficients : BT.2020 non-constant Mastering display color primaries : Display P3 Mastering display luminance : min: 0.0001 cd/m2, max: 1000 cd/m2 Maximum Content Light Level : 800 cd/m2 Maximum Frame-Average Light Level : 368 cd/m2 Audio #1 ID : 2 Format : E-AC-3 Format/Info : Enhanced AC-3 Commercial name : Dolby Digital Plus Codec ID : A_EAC3 Duration : 1 h 46 min Bit rate mode : Constant Bit rate : 640 kb/s Channel(s) : 6 channels Channel layout : L R C LFE Ls Rs Sampling rate : 48.0 kHz Frame rate : 31.250 FPS (1536 SPF) Compression mode : Lossy Stream size : 489 MiB (2%) Title : DUB (Postmodern) Language : Ukrainian Service kind : Complete Main Default : Yes Forced : No Audio #2 ID : 3 Format : E-AC-3 JOC Format/Info : Enhanced AC-3 with Joint Object Coding Commercial name : Dolby Digital Plus with Dolby Atmos Codec ID : A_EAC3 Duration : 1 h 46 min Bit rate mode : Constant Bit rate : 768 kb/s Channel(s) : 6 channels Channel layout : L R C LFE Ls Rs Sampling rate : 48.0 kHz Frame rate : 31.250 FPS (1536 SPF) Compression mode : Lossy Stream size : 586 MiB (3%) Title : Original Language : English Service kind : Complete Main Default : No Forced : No Complexity index : 16 Number of dynamic objects : 15 Bed channel count : 1 channel Bed channel configuration : LFE Text #1 ID : 4 Format : UTF-8 Codec ID : S_TEXT/UTF8 Codec ID/Info : UTF-8 Plain Text Duration : 1 h 31 min Bit rate : 5 b/s Count of elements : 114 Stream size : 4.00 KiB (0%) Title : Forced Language : Ukrainian Default : Yes Forced : Yes Text #2 ID : 5 Format : UTF-8 Codec ID : S_TEXT/UTF8 Codec ID/Info : UTF-8 Plain Text Duration : 1 h 43 min Bit rate : 91 b/s Count of elements : 1346 Stream size : 69.6 KiB (0%) Title : Full Language : Ukrainian Default : No Forced : No Text #3 ID : 6 Format : UTF-8 Codec ID : S_TEXT/UTF8 Codec ID/Info : UTF-8 Plain Text Duration : 1 h 34 min Bit rate : 98 b/s Count of elements : 1140 Stream size : 68.7 KiB (0%) Title : Full Language : Ukrainian Default : No Forced : No Text #4 ID : 7 Format : UTF-8 Codec ID : S_TEXT/UTF8 Codec ID/Info : UTF-8 Plain Text Duration : 1 h 25 min Bit rate : 0 b/s Count of elements : 28 Stream size : 553 Bytes (0%) Title : Forced Language : English Default : No Forced : No Text #5 ID : 8 Format : UTF-8 Codec ID : S_TEXT/UTF8 Codec ID/Info : UTF-8 Plain Text Duration : 1 h 36 min Bit rate : 66 b/s Count of elements : 1472 Stream size : 47.3 KiB (0%) Title : Full Language : English Default : No Forced : No Text #6 ID : 9 Format : UTF-8 Codec ID : S_TEXT/UTF8 Codec ID/Info : UTF-8 Plain Text Duration : 1 h 44 min Bit rate : 75 b/s Count of elements : 1819 Stream size : 57.7 KiB (0%) Title : SDH Language : English Default : No Forced : No
[+] Скриншоты

Всего файлов в раздаче: 1 
Lift.(2024).WEB-DL.2160p.HDR.Ukr.Eng.[Hurtom].mkv19.20 GB

Похожие раздачи по запросу - Воздушное
2024-02-10 magnet Воздушное ограбление / Lift (2024) WEB-DLRip-AVC от ExKinoRay | D 745.16 MB ↑ 0 ↓ 0
2024-02-09 magnet Воздушное ограбление / Lift (2024) WEB-DLRip 720p от DoMiNo & селезень | D, P2 2.89 GB ↑ 0 ↓ 0
2024-02-09 magnet Воздушное ограбление / Lift (2024) WEB-DL-HEVC 2160p | 4K | SDR | D 10.33 GB ↑ 1 ↓ 0
2024-02-09 magnet Воздушное ограбление / Lift (2024) WEB-DL 720p от ExKinoRay | D 2.35 GB ↑ 0 ↓ 0
2024-02-09 magnet Воздушное ограбление / Lift (2024) WEB-DLRip от MegaPeer | D | Red Head Sound 1.46 GB ↑ 0 ↓ 0
2024-02-09 magnet Воздушное ограбление / Lift (2024) WEB-DL 2160p | 4K | HDR | D | Condor Films Studio 19.20 GB ↑ 0 ↓ 1
2024-02-09 magnet Воздушное ограбление / Lift (2024) WEB-DL 1080p от Scarabey | D | Red Head Sound 4.69 GB ↑ 0 ↓ 0

Комментарии


Зарегистрируйтесь чтобы добавить комментарий
Торрент клиент
byTorrent - программа для загрузки торрент-файлов.

Скачать byTorrent.exe (1,5 МБ)

Скачать byTorrent.zip (0,6 МБ)

Поддержи torrent.by
российских рублей
(300 российских рублей это 4$)

Обратная связь rss

End game ©