↑↓torrent.by
Поиск
Логин:  Регистрация
Пароль:

Трасса 60 / Interstate 60 (2002) WEBRip-AVC | P2

download Скачать торрент-файл   magnet Магнитная ссылка Размер: 3.43 GB Добавлен: 2024-02-05 17:00
Пиры будут получены из сети DHT
Последний сидер был замечен вчера в 23:03
Информация о фильме Название: Трасса 60 Оригинальное название: Interstate 60 Год выхода: 2002 Жанр: Фантастика, фэнтези, комедия, драма, приключения, детектив Режиссер: Боб Гэйл В ролях: Джеймс Марсден, Гэри Олдмэн, Кристофер Ллойд, Курт Расселл, Эми Смарт, Майкл Дж. Фокс, Крис Купер О фильме: В легендах и мифах есть персонажи, главная задача которых — исполнять желания. У арабов — это джинны, у ирландцев — лепреконы, у китайцев — драконы, у европейцев — феи и лесные духи. А в Америке есть некто О. Ж. Грант — довольно странный и забавный человек, который тоже может исполнить любое Ваше желание. Но будьте осторожны — он очень проказлив! Вот его-то и встречает однажды Нейл Оливер. Нейл вполне доволен своей жизнью: у него обеспеченные родители, симпатичная невеста и впереди блестящая карьера юриста. Но с недавних пор по ночам ему стала сниться загадочная девушка, которую он никак не может выбросить из головы. Чудаковатый Грант приглашает Нейла совершить поездку по таинственной автостраде 60, которой нет ни на одной карте США. И Нейл бросает все и пускается в самое невероятное и рискованное путешествие в своей жизни, решив, во что бы то ни стало разыскать незнакомку из своих снов. Страна: США, Канада Продолжительность: 01:52:16 Перевод: Профессиональный (двухголосый, закадровый) Субтитры: Нет Файл Тип релиза: WEBRip-AVC Контейнер: MKV Видео: 1024x576, 25,000 кадр/сек, ~3841 Кбит/сек Аудио: AC-3, 6 ch, 448 Кбит/сек, 48.0 КГц Навигация по главам: Есть
[+] Факты о фильме* Фильм снимался в Фениксе (штат Аризона, США) и в Торонто (провинция Онтарио, Канада). Непосредственные съемки фильма были осуществлены практически за месяц – с 18 сентября по октябрь 2000 года. Инициалы одного из главных героев картины - О. Ж. Гранта - расшифровываются как «Одно предоставленное желание» (One Wish Grant). Номер здания, в котором у Нила была назначена встреча с Рэем — 555. Это число часто используют в фильмах для вымышленных объектов, в телефонных номерах и прочее. В начале фильма можно заметить, что у Нила в комнате много изображений героев комиксов «Люди Х» издательства Marvel. Создатели фильма хотели показать, что при создании образа О. Ж. Гранта авторы черпали вдохновение в мифологии стран мира. Грант представлен как лепрекон-ирландец, поэтому он — рыжий. Трубка в форме головы обезьяны пришла из Восточной мифологии, а саму трубку можно привязать к джинам. Карточные трюки за Кристофера Ллойда исполнил профессиональный фокусник-дублёр. * Часы за героем Кристофера Ллойда показывают 10:04 — во столько остановились часы на башне из-за удара молнии в трилогии «Назад в будущее».
[+] MediaInfoGeneral Complete name : Трасса 60.(2002).WEB_DLRIP-AVC..mkv Format : Matroska Format version : Version 4 / Version 2 File size : 3.43 GiB Duration : 1 h 52 min Overall bit rate : 4 376 kb/s Movie name : Трасса 60 Attachments : poster.jpg COMPOSER : Кристоф Бек DATE : 2001 DIRECTOR : Боб Гейл GENRE : фантастика, фэнтези, драма ORIGINAL_TITLE : Interstate 60 WRITER : Боб Гейл Video ID : 1 Format : AVC Format/Info : Advanced Video Codec Format profile : High@L4.1 Format settings : CABAC / 10 Ref Frames Format settings, CABAC : Yes Format settings, ReFrames : 10 frames Codec ID : V_MPEG4/ISO/AVC Duration : 1 h 52 min Bit rate : 3 841 kb/s Width : 1 024 pixels Height : 576 pixels Display aspect ratio : 16:9 Frame rate mode : Constant Frame rate : 25.000 FPS Color space : YUV Chroma subsampling : 4:2:0 Bit depth : 8 bits Scan type : Progressive Bits/(Pixel*Frame) : 0.260 Stream size : 3.01 GiB (88%) Title : RIP_BY_-=DoMiNo=- Writing library : x264 core 155 r2893M b00bcaf Encoding settings : cabac=1 / ref=10 / deblock=1:-3:-3 / analyse=0x3:0x133 / me=umh / subme=10 / psy=1 / psy_rd=1.00:0.03 / mixed_ref=1 / me_range=32 / chroma_me=1 / trellis=2 / 8x8dct=1 / cqm=0 / deadzone=21,11 / fast_pskip=1 / chroma_qp_offset=-3 / threads=6 / lookahead_threads=1 / sliced_threads=0 / nr=0 / decimate=1 / interlaced=0 / bluray_compat=0 / constrained_intra=0 / bframes=9 / b_pyramid=2 / b_adapt=2 / b_bias=0 / direct=3 / weightb=1 / open_gop=0 / weightp=2 / keyint=250 / keyint_min=25 / scenecut=40 / intra_refresh=0 / rc_lookahead=60 / rc=crf / mbtree=1 / crf=20.5 / qcomp=0.60 / qpmin=0 / qpmax=69 / qpstep=4 / ip_ratio=1.40 / aq=1:1.00 Language : English Default : Yes Forced : No Color range : Limited Color primaries : BT.709 Transfer characteristics : BT.709 Matrix coefficients : BT.709 Audio ID : 2 Format : AC-3 Format/Info : Audio Coding 3 Codec ID : A_AC3 Duration : 1 h 52 min Bit rate mode : Constant Bit rate : 448 kb/s Channel(s) : 6 channels Channel positions : Front: L C R, Side: L R, LFE Sampling rate : 48.0 kHz Frame rate : 31.250 FPS (1536 SPF) Bit depth : 16 bits Compression mode : Lossy Stream size : 359 MiB (10%) Title : MVO Language : Russian Service kind : Complete Main Default : Yes Forced : No Menu 00:00:00.000 : :Chapter 1 00:08:52.799 : :Chapter 2 00:18:59.520 : :Chapter 3 00:29:03.800 : :Chapter 4 00:38:23.120 : :Chapter 5 00:48:53.120 : :Chapter 6 01:06:38.279 : :Chapter 7 01:09:49.840 : :Chapter 8 01:19:57.920 : :Chapter 9 01:28:07.480 : :Chapter 10 01:39:45.520 : :Chapter 11
[+] Скриншоты

Всего файлов в раздаче: 1 
Трасса 60.(2002).WEB_DLRIP-AVC.[-=DoMiNo=-].mkv3.43 GB

Похожие раздачи по запросу - Трасса
2024-02-12 magnet Трасса 60 / Interstate 60 (2002) WEBRip 720p от HD-Кинозал | P2, А 11.01 GB ↑ 0 ↓ 0
2024-02-05 magnet Трасса 60 / Interstate 60 (2002) WEB-DLRip | P2 1.46 GB ↑ 0 ↓ 0

Комментарии


Зарегистрируйтесь чтобы добавить комментарий
Торрент клиент
byTorrent - программа для загрузки торрент-файлов.

Скачать byTorrent.exe (1,5 МБ)

Скачать byTorrent.zip (0,6 МБ)

Поддержи torrent.by
российских рублей
(300 российских рублей это 4$)

Обратная связь rss

End game ©