↑↓torrent.by
Поиск
Логин:  Регистрация
Пароль:

Базз Лайтер / Lightyear (2022) BDRip-AVC от DoMiNo & селезень | D, P

download Скачать торрент-файл   magnet Магнитная ссылка Размер: 2.61 GB Добавлен: 2024-02-05 17:00
Пиры будут получены из сети DHT
Последний сидер был замечен 2024-03-03 20:51
Информация о фильме Название: Базз Лайтер Оригинальное название: Lightyear Год выхода: 2022 Жанр: Мультфильм, фантастика, боевик, драма, приключения, полнометражный Режиссер: Энгус МакЛэйн В ролях: Крис Эванс, Кеке Палмер, Питер Сон, Тайка Вайтити, Дэйл Соулс, Джеймс Бролин, Узо Адуба, Мэри МаДональд-Льюис, Исайя Уитлок мл., Энгус МакЛэйн О фильме: История молодого летчика-испытателя Базза Лайтера, ставшего тем самым космическим рейнджером, каким его знают сегодня. Страна: США Студия: Pixar, Pixar Animation Studios, Walt Disney Pictures Продолжительность: 01:45:04 Перевод(ы): #1: Дублированный (профессиональный) | Cinema Tone Production, Казахстан #2: Дублированный (неофициальный) | Red Head Sound #3: Профессиональный многоголосый | Jaskier #4: Профессиональный многоголосый | TVShows Субтитры: Русские (Forced, 2 x full), английские Файл Формат: Matroska Качество: BDRip-AVC Видео: 1024x428 at 23.976 fps, x264@L4.1, ~1891 kbps Аудио #01: 48 kHz, AC3, 2.0, 192 Kbps | Дублированный | Cinema Tone Production, Казахстан | RUS | Аудио #02: 48 kHz, AC3, 5.1, 448 Kbps | Дублированный | Red Head Sound | RUS | Аудио #03: 48 kHz, AC3, 5.1, 384 Kbps | Профессиональный многоголосый | Jaskier | RUS | Аудио #04: 48 kHz, AC3, 2.1, 192 Kbps | Профессиональный многоголосый | TVShows | RUS | Аудио #05: 48 kHz, AC3, 5.1, 448 Kbps | Оригинал | ENG | Формат субтитров: softsub (SRT) ***Рип от: -=DoMiNo=-
[+] M/Ix264 : frame I:1450 Avg QP:15.89 size: 57185 x264 : frame P:34700 Avg QP:18.24 size: 21085 x264 : frame B:115013 Avg QP:20.65 size: 5878 x264 : consecutive B-frames: 3.7% 3.9% 8.7% 20.5% 15.9% 30.2% 6.9% 3.4% 2.1% 1.8% 0.9% 0.8% 0.5% General Unique ID : 181010781719963168505165458668817340369 (0x882D6891F53D84A113322B552421D7D1) Complete name : D:Lightyear.2022.BDRip.x264.seleZen.mkv Format : Matroska Format version : Version 4 File size : 2.61 GiB Duration : 1 h 45 min Overall bit rate : 3 559 kb/s Movie name : Lightyear.2022.BDRip.x264.seleZen Encoded date : UTC 2022-08-23 08:47:33 Writing application : mkvmerge v70.0.0 ('Caught A Lite Sneeze') 64-bit Writing library : libebml v1.4.2 + libmatroska v1.6.4 Cover : Yes Attachments : cover.jpg / small_cover.jpg Video ID : 1 Format : AVC Format/Info : Advanced Video Codec Format profile : High@L4.1 Format settings : CABAC / 14 Ref Frames Format settings, CABAC : Yes Format settings, Reference : 14 frames Codec ID : V_MPEG4/ISO/AVC Duration : 1 h 45 min Bit rate : 1 891 kb/s Width : 1 024 pixels Height : 428 pixels Display aspect ratio : 2.40:1 Frame rate mode : Constant Frame rate : 23.976 (24000/1001) FPS Color space : YUV Chroma subsampling : 4:2:0 Bit depth : 8 bits Scan type : Progressive Bits/(Pixel*Frame) : 0.180 Stream size : 1.39 GiB (53%) Title : -=DoMiNo=- Writing library : x264 core 164 by -=DoMiNo=- Encoding settings : cabac=1 / ref=14 / deblock=1:-3:-2 / analyse=0x3:0x133 / me=umh / subme=11 / psy=1 / psy_rd=1.03:0.06 / mixed_ref=1 / me_range=32 / chroma_me=1 / trellis=2 / 8x8dct=1 / cqm=0 / deadzone=21,11 / fast_pskip=0 / chroma_qp_offset=-3 / threads=17 / lookahead_threads=3 / sliced_threads=0 / nr=0 / decimate=0 / interlaced=0 / bluray_compat=0 / constrained_intra=0 / bframes=12 / b_pyramid=2 / b_adapt=2 / b_bias=0 / direct=1 / weightb=1 / open_gop=0 / weightp=2 / keyint=250 / keyint_min=23 / scenecut=40 / intra_refresh=0 / rc_lookahead=60 / rc=crf / mbtree=0 / crf=17.8 / qcomp=0.65 / qpmin=0 / qpmax=69 / qpstep=4 / vbv_maxrate=50000 / vbv_bufsize=62500 / crf_max=0.0 / nal_hrd=none / filler=0 / ip_ratio=1.40 / pb_ratio=1.30 / aq=2:0.90 Language : English Default : Yes Forced : No Audio #1 ID : 2 Format : AC-3 Format/Info : Audio Coding 3 Commercial name : Dolby Digital Codec ID : A_AC3 Duration : 1 h 45 min Bit rate mode : Constant Bit rate : 192 kb/s Channel(s) : 2 channels Channel layout : L R Sampling rate : 48.0 kHz Frame rate : 31.250 FPS (1536 SPF) Compression mode : Lossy Stream size : 144 MiB (5%) Title : Dub Language : Russian Service kind : Complete Main Default : Yes Forced : Yes Audio #2 ID : 3 Format : AC-3 Format/Info : Audio Coding 3 Commercial name : Dolby Digital Codec ID : A_AC3 Duration : 1 h 45 min Bit rate mode : Constant Bit rate : 448 kb/s Channel(s) : 6 channels Channel layout : L R C LFE Ls Rs Sampling rate : 48.0 kHz Frame rate : 31.250 FPS (1536 SPF) Compression mode : Lossy Stream size : 337 MiB (13%) Title : Dub Language : Russian Service kind : Complete Main Default : No Forced : No Audio #3 ID : 4 Format : AC-3 Format/Info : Audio Coding 3 Commercial name : Dolby Digital Codec ID : A_AC3 Duration : 1 h 45 min Bit rate mode : Constant Bit rate : 384 kb/s Channel(s) : 6 channels Channel layout : L R C LFE Ls Rs Sampling rate : 48.0 kHz Frame rate : 31.250 FPS (1536 SPF) Compression mode : Lossy Stream size : 289 MiB (11%) Title : MVO Language : Russian Service kind : Complete Main Default : No Forced : No Audio #4 ID : 5 Format : AC-3 Format/Info : Audio Coding 3 Commercial name : Dolby Digital Codec ID : A_AC3 Duration : 1 h 45 min Bit rate mode : Constant Bit rate : 192 kb/s Channel(s) : 2 channels Channel layout : L R Sampling rate : 48.0 kHz Frame rate : 31.250 FPS (1536 SPF) Compression mode : Lossy Stream size : 144 MiB (5%) Title : MVO Language : Russian Service kind : Complete Main Default : No Forced : No Audio #5 ID : 6 Format : AC-3 Format/Info : Audio Coding 3 Commercial name : Dolby Digital Codec ID : A_AC3 Duration : 1 h 45 min Bit rate mode : Constant Bit rate : 448 kb/s Channel(s) : 6 channels Channel layout : L R C LFE Ls Rs Sampling rate : 48.0 kHz Frame rate : 31.250 FPS (1536 SPF) Compression mode : Lossy Stream size : 337 MiB (13%) Title : Original Language : English Service kind : Complete Main Default : No Forced : No Text #1 ID : 7 Format : UTF-8 Codec ID : S_TEXT/UTF8 Codec ID/Info : UTF-8 Plain Text Duration : 1 h 33 min Bit rate : 0 b/s Count of elements : 9 Stream size : 592 Bytes (0%) Title : Forced Language : Russian Default : Yes Forced : No Text #2 ID : 8 Format : UTF-8 Codec ID : S_TEXT/UTF8 Codec ID/Info : UTF-8 Plain Text Duration : 1 h 42 min Bit rate : 90 b/s Count of elements : 1546 Stream size : 68.0 KiB (0%) Title : Full Language : Russian Default : No Forced : No Text #3 ID : 9 Format : UTF-8 Codec ID : S_TEXT/UTF8 Codec ID/Info : UTF-8 Plain Text Duration : 1 h 43 min Bit rate : 105 b/s Count of elements : 1057 Stream size : 79.8 KiB (0%) Title : Full v.2 Language : Russian Default : No Forced : No Text #4 ID : 10 Format : UTF-8 Codec ID : S_TEXT/UTF8 Codec ID/Info : UTF-8 Plain Text Duration : 1 h 42 min Bit rate : 63 b/s Count of elements : 1667 Stream size : 47.5 KiB (0%) Title : Full Language : English Default : No Forced : No Text #5 ID : 11 Format : UTF-8 Codec ID : S_TEXT/UTF8 Codec ID/Info : UTF-8 Plain Text Duration : 1 h 44 min Bit rate : 76 b/s Count of elements : 2076 Stream size : 58.3 KiB (0%) Title : SDH Language : English Default : No Forced : No Menu 00:00:00.000 : en:Глава 01 00:04:43.742 : en:Глава 02 00:06:48.324 : en:Глава 03 00:08:13.118 : en:Глава 04 00:09:33.740 : en:Глава 05 00:11:58.384 : en:Глава 06 00:15:27.176 : en:Глава 07 00:18:05.042 : en:Глава 08 00:20:40.698 : en:Глава 09 00:22:34.394 : en:Глава 10 00:24:37.017 : en:Глава 11 00:25:41.873 : en:Глава 12 00:27:01.244 : en:Глава 13 00:30:53.268 : en:Глава 14 00:32:02.837 : en:Глава 15 00:33:32.927 : en:Глава 16 00:34:23.311 : en:Глава 17 00:36:56.798 : en:Глава 18 00:39:14.185 : en:Глава 19 00:41:55.596 : en:Глава 20 00:45:29.226 : en:Глава 21 00:50:28.942 : en:Глава 22 00:51:37.928 : en:Глава 23 00:54:23.093 : en:Глава 24 00:57:55.346 : en:Глава 25 01:02:11.436 : en:Глава 26 01:04:26.320 : en:Глава 27 01:07:35.843 : en:Глава 28 01:09:15.693 : en:Глава 29 01:10:32.770 : en:Глава 30 01:11:25.572 : en:Глава 31 01:15:37.824 : en:Глава 32 01:16:45.392 : en:Глава 33 01:17:44.076 : en:Глава 34 01:25:18.988 : en:Глава 35 01:27:10.683 : en:Глава 36 01:29:00.960 : en:Глава 37 01:30:42.186 : en:Глава 38 01:33:45.619 : en:Глава 39 01:36:02.381 : en:Глава 40 01:43:35.500 : en:Глава 41
Релиз: Присоединяйся к: Кликай на баннеры.

Всего файлов в раздаче: 1 
Lightyear.2022.BDRip.x264.seleZen.mkv2.61 GB

Похожие раздачи по запросу - Базз
2024-02-05 magnet Базз Лайтер / Lightyear (2022) WEB-DL 720p от DoMiNo & селезень | D, P | IMAX Edition 3.79 GB ↑ 0 ↓ 0
2022-08-23 magnet Базз Лайтер / Lightyear (2022) BDRip 720p от селезень | D, P 4.53 GB ↑ 0 ↓ 0

Комментарии


Зарегистрируйтесь чтобы добавить комментарий
Торрент клиент
byTorrent - программа для загрузки торрент-файлов.

Скачать byTorrent.exe (1,5 МБ)

Скачать byTorrent.zip (0,6 МБ)

Поддержи torrent.by
российских рублей
(300 российских рублей это 4$)

Обратная связь rss

End game ©