↑↓torrent.by
Поиск
Логин:  Регистрация
Пароль:

Ведьма Лапласа / Rapurasu no majo (2018) HDRip от ExKinoRay | L2

download Скачать торрент-файл   magnet Магнитная ссылка Размер: 746.68 MB Добавлен: 2024-02-06 05:00
Пиры будут получены из сети DHT
Последний сидер был замечен 2024-02-06 21:10
Информация о фильме Название: Ведьма Лапласа Оригинальное название: Rapurasu no majo Год выхода: 2018 Жанр: Детектив, криминал, фантастика Режиссер: Такаши Миике В ролях: Сё Сакурай, Судзу Хиросэ, Сота Фукуси, Рэи Дан, Рири Фрэнки, Тао Окамото, Эрико Сато, Мираи Сида, Масанобу Такасима, Хироси Тамаки О фильме: Двух, казалось бы, несвязанных между собой людей находят умершими от отравления сероводородом. Приглашённый эксперт, профессор геологии Сюнсукэ Аои, считает, что это несчастные случаи, вероятность повторения которых ничтожно мала. Полицейский детектив из Токио находит связь между погибшими, и никак не может понять способ совершения убийств, если они всё-таки имели место, когда профессор сталкивается со старшеклассницей Мадокой. Девушка обладает невероятными способностями, и ей приходится скрываться от правительственных агентов. Страна: Япония Продолжительность: 01:55:19 Перевод: Любительский двухголосый - Q-Media Файл Кодек: XviD Качество: HDRip Видео: 688x288 (2.39:1), 23.976 fps, XviD build 73 ~768 kbps avg, 0.16 bit/pixel Звук: 44.100 kHz, MPEG Layer 3, 2 ch, ~128.00 kbps avg Субтитры: Отсутствуют
[+] MediaInfoGeneral Complete name : D:Ведьма Лапласа.2018.DVO.HDRip by.ExKinoRay.avi Format : AVI Format/Info : Audio Video Interleave Format settings : BitmapInfoHeader / WaveFormatEx File size : 747 MiB Duration : 1 h 55 min Overall bit rate : 905 kb/s Frame rate : 23.976 FPS Writing application : VirtualDubMod 1.5.10.3 | www.virtualdub-fr.org || (build 2550/release) Writing library : VirtualDubMod build 2550/release Video ID : 0 Format : MPEG-4 Visual Format profile : Advanced Simple@L5 Format settings : BVOP1 / Custom Matrix Format settings, BVOP : 1 Format settings, QPel : No Format settings, GMC : No warppoints Format settings, Matrix : Custom Codec ID : XVID Codec ID/Hint : XviD Duration : 1 h 55 min Bit rate : 768 kb/s Width : 688 pixels Height : 288 pixels Display aspect ratio : 2.40:1 Frame rate : 23.976 (24000/1001) FPS Color space : YUV Chroma subsampling : 4:2:0 Bit depth : 8 bits Scan type : Progressive Compression mode : Lossy Bits/(Pixel*Frame) : 0.162 Stream size : 633 MiB (85%) Writing library : XviD 73 Audio ID : 1 Format : MPEG Audio Format version : Version 1 Format profile : Layer 3 Codec ID : 55 Codec ID/Hint : MP3 Duration : 1 h 55 min Bit rate mode : Constant Bit rate : 128 kb/s Channel(s) : 2 channels Sampling rate : 44.1 kHz Frame rate : 38.281 FPS (1152 SPF) Compression mode : Lossy Stream size : 106 MiB (14%) Alignment : Split across interleaves Interleave, duration : 42 ms (1.00 video frame) Interleave, preload duratio : 500 ms Writing library : LAME3.99r Encoding settings : -m s -V 4 -q 2 -lowpass 17 -b 128
[+] Скриншоты
Релиз от: Рип изготовил:

Всего файлов в раздаче: 1 
Ведьма Лапласа.2018.DVO.HDRip by.ExKinoRay.avi746.68 MB

Похожие раздачи по запросу - Ведьма
2024-01-27 magnet Ведьма и чудовище / Majo to Yajuu [01x01-02 из 12] (2024) WEBRip 1080p | AniPlague 2.89 GB ↑ 0 ↓ 0
2022-11-06 magnet Эксперимент «Ведьма» / Ведьма 2 / Manyeo 2 / The Witch: Part 2 - The Other One (2022) BDRip от MegaPeer | D 1.46 GB ↑ 0 ↓ 0

Комментарии


Зарегистрируйтесь чтобы добавить комментарий
Торрент клиент
byTorrent - программа для загрузки торрент-файлов.

Скачать byTorrent.exe (1,5 МБ)

Скачать byTorrent.zip (0,6 МБ)

Поддержи torrent.by
российских рублей
(300 российских рублей это 4$)

Обратная связь rss

End game ©