↑↓torrent.by
Поиск
Логин:  Регистрация
Пароль:

Диктатор / The Dictator (2012) BDRemux 1080p | D | Театральная версия

download Скачать торрент-файл   magnet Магнитная ссылка Размер: 20.67 GB Добавлен: 2024-02-06 05:00
Пиры будут получены из сети DHT
Последний сидер был замечен 2024-02-07 19:02
Информация о фильме Название: Диктатор Оригинальное название: The Dictator Год выхода: 2012 Жанр: комедия Режиссер: Ларри Чарльз В ролях: Саша Барон Коэн, Анна Фэрис, Бен Кингсли, Джейсон Манцукас, Бобби Ли, Кевин Корригэн, Кэтрин Хан, Сет Моррис, Адиль Ахтар, Джон Си Райли, Саид Бадрия, Роки Ситрон О фильме: Героическая история диктатора, который рискует своей жизнью, чтобы ни в коем случае не допустить демократию в свою столь любовно угнетаемую страну. Страна: США Продолжительность: 01:23:18 Перевод: профессиональный (дублированный) Лицензия (R5) Субтитры: русские, украинские, английские Оригинальная аудиодорожка: английский Файл Качество: BDRemux 1080p Видео: MPEG-4 AVC Video / 1920x1080 at 23.976 fps / 16:9 / ~30483 kbps avg / High Profile 4.1 Аудио 1: Russian: 48 kHz, AC3, 3/2 (L,C,R,l,r) + LFE ch, ~448.00 kbps avg |Дубляж, R5| Аудио 2: Ukrainian: 48 kHz, AC3, 3/2 (L,C,R,l,r) + LFE ch, ~448.00 kbps avg |Дубляж, R5| Аудио 3: English: DTS-HD Master Audio / 5.1 / 48 kHz / 3811 kbps / 24-bit (DTS Core: 5.1 / 48 kHz / 1509 kbps / 24-bit) Аудио 4: English: 48 kHz, AC3, 3/2 (L,C,R,l,r) + LFE ch, ~ 640.00 kbps avg |Deive|
[+] Скриншоты
[+] MediaInfoGeneral Unique ID : 152669532819301994890157140545088733922 (0x72DB151DC086C94B45DF290C21BB42E2) Complete name : /Volumes/HP Desktop Drive/THE.DICTATOR.2012.THEATRICAL.BDREMUX.mkv Format : Matroska Format version : Version 2 File size : 20.7 GiB Duration : 1h 23mn Overall bit rate mode : Variable Overall bit rate : 35.5 Mbps Movie name : THE.DICTATOR.2012.THEATRICAL.BDREMUX Encoded date : UTC 2012-09-10 13:22:39 Writing application : mkvmerge v5.7.0 ('The Whirlwind') built on Jul 15 2012 00:01:52 Writing library : libebml v1.2.2 + libmatroska v1.3.0 Video ID : 1 Format : AVC Format/Info : Advanced Video Codec Format profile : High@L4.1 Format settings, CABAC : Yes Format settings, ReFrames : 2 frames Format settings, GOP : M=1, N=10 Codec ID : V_MPEG4/ISO/AVC Duration : 1h 23mn Bit rate mode : Variable Bit rate : 31.7 Mbps Width : 1 920 pixels Height : 1 080 pixels Display aspect ratio : 16:9 Frame rate : 23.976 fps Color space : YUV Chroma subsampling : 4:2:0 Bit depth : 8 bits Scan type : Progressive Bits/(Pixel*Frame) : 0.638 Stream size : 18.4 GiB (89%) Default : Yes Forced : No Audio #1 ID : 2 Format : AC-3 Format/Info : Audio Coding 3 Mode extension : CM (complete main) Codec ID : A_AC3 Duration : 1h 23mn Bit rate mode : Constant Bit rate : 448 Kbps Channel(s) : 6 channels Channel positions : Front: L C R, Side: L R, LFE Sampling rate : 48.0 KHz Bit depth : 16 bits Compression mode : Lossy Stream size : 267 MiB (1%) Title : Dub_Rus_R5 Language : Russian Default : Yes Forced : No Audio #2 ID : 3 Format : AC-3 Format/Info : Audio Coding 3 Mode extension : CM (complete main) Codec ID : A_AC3 Duration : 1h 23mn Bit rate mode : Constant Bit rate : 448 Kbps Channel(s) : 6 channels Channel positions : Front: L C R, Side: L R, LFE Sampling rate : 48.0 KHz Bit depth : 16 bits Compression mode : Lossy Stream size : 267 MiB (1%) Title : Dub_Ukr_R5 Language : Ukrainian Default : No Forced : No Audio #3 ID : 4 Format : DTS Format/Info : Digital Theater Systems Format profile : MA / Core Codec ID : A_DTS Duration : 1h 23mn Bit rate mode : Variable Bit rate : 1 576 Kbps / 1 510 Kbps Channel(s) : 6 channels Channel positions : Front: L C R, Side: L R, LFE Sampling rate : 48.0 KHz Bit depth : 24 bits Compression mode : Lossless / Lossy Language : English Default : No Forced : No Audio #4 ID : 5 Format : AC-3 Format/Info : Audio Coding 3 Mode extension : CM (complete main) Codec ID : A_AC3 Duration : 1h 23mn Bit rate mode : Constant Bit rate : 640 Kbps Channel(s) : 6 channels Channel positions : Front: L C R, Side: L R, LFE Sampling rate : 48.0 KHz Bit depth : 16 bits Compression mode : Lossy Stream size : 381 MiB (2%) Language : English Default : No Forced : No Text #1 ID : 6 Format : UTF-8 Codec ID : S_TEXT/UTF8 Codec ID/Info : UTF-8 Plain Text Title : Original_Eng_sub Language : English Default : No Forced : No Text #2 ID : 7 Format : UTF-8 Codec ID : S_TEXT/UTF8 Codec ID/Info : UTF-8 Plain Text Title : Rus_sub Language : Russian Default : No Forced : No Text #3 ID : 8 Format : UTF-8 Codec ID : S_TEXT/UTF8 Codec ID/Info : UTF-8 Plain Text Title : Ukr_sub Language : Ukrainian Default : No Forced : No Menu 00:00:00.000 : en:Chapter 1 00:07:11.639 : en:Chapter 2 00:11:14.215 : en:Chapter 3 00:16:48.465 : en:Chapter 4 00:21:18.902 : en:Chapter 5 00:26:36.928 : en:Chapter 6 00:32:15.058 : en:Chapter 7 00:38:15.751 : en:Chapter 8 00:42:37.388 : en:Chapter 9 00:48:46.465 : en:Chapter 10 00:55:37.792 : en:Chapter 11 01:01:48.705 : en:Chapter 12 01:06:46.460 : en:Chapter 13 01:13:32.241 : en:Chapter 14 01:23:17.742 : en:Chapter 15

Всего файлов в раздаче: 1 
THE.DICTATOR.2012.THEATRICAL.BDREMUX[Release_by_Doktor_S.].mkv20.67 GB

Комментарии

mussik111
Есть такие люди которые его все еще не смотрели. Один из них я.


Зарегистрируйтесь чтобы добавить комментарий
Торрент клиент
byTorrent - программа для загрузки торрент-файлов.

Скачать byTorrent.exe (1,5 МБ)

Скачать byTorrent.zip (0,6 МБ)

Поддержи torrent.by
российских рублей
(300 российских рублей это 4$)

Обратная связь rss

End game ©