↑↓torrent.by
Поиск
Логин:  Регистрация
Пароль:

Банши / Banshee [S02] (2014) BDRip-HEVC 1080p от RIPS CLUB | Пифагор, TVShows, NewStudio, 2x2

download Скачать торрент-файл   magnet Магнитная ссылка Размер: 22.81 GB Добавлен: 2024-02-06 05:00
Пиры будут получены из сети DHT
Последний сидер был замечен 2024-02-07 01:02
Название: Банши Оригинальное название: Banshee Год производства: 2014 Производство: США / Cinemax, Your Face Goes Here Entertainment Жанр: боевик, триллер, драма, криминал, детектив Режиссёр: Оле Кристиан Мадсен, Грег Яйтанс, Лони Перистер В ролях: Энтони Старр, Ивана Миличевич, Ульрих Томсен, Хун Ли, Фрэнки Фэйзон, Лили Симмонс, Триесте Келли Данн, Рас Блэквелл, Мэтт Сервитто, Деметриус Гросс О фильме: Лукас Худ — отбывший наказание в тюрьме вор, который некогда предал своих подельников. После отсидки он приезжает в небольшой городок в Пенсильвании, носящий название Банши, где обманом получает пост местного шерифа. Но это не значит, что он забыл своё криминальное прошлое и теперь служит закону. Гангстеры, которых он когда-то предал, всё еще помнят про него и стремятся отомстить. Назревает жесткое противостояние между новоявленным шерифом и его бывшими приятелями. Спокойствие местного населения нарушается, а убийство следует за убийством, когда шериф начинает «наводить порядок» во вверенном его заботам городке. Продолжительность: ~00:50:00 серия Перевод: многоголосый профессиональный Качество: BDRip-HEVC 1080p Кодек: HEVC (x265) Видео: 1920x1080, ~4277 Kbps, HEVC (Main10@L.4.1@High) 10 бит Звук: Аудио1: AC3, 6 ch, 384 Kbps - Русский, MVO (Пифагор по заказу Amedia) Аудио2: AC3, 6 ch, 384 Kbps - Русский, MVO (TVShows) Аудио3: AC3, 6 ch, 384 Kbps - Русский, MVO (NewStudio без цензуры) Аудио4: AC3, 2 ch, 192 Kbps - Русский, MVO (2x2 / Кравец) Аудио5: AC3, 6 ch, 640 Kbps - Английский Субтитры: русские, английские Навигация по главам: Есть
[+] Лог (x265 info) + Mediainfo x265 info: frame I: 303, Avg QP:17.44 kb/s: 18872.69 x265 info: frame P: 14647, Avg QP:18.85 kb/s: 10379.10 x265 info: frame B: 56711, Avg QP:21.05 kb/s: 2621.94 x265 info: Weighted P-Frames: Y:3.2% UV:2.3% x265 info: Weighted B-Frames: Y:2.3% UV:1.5% x265 info: consecutive B-frames: 9.0% 7.0% 6.6% 36.4% 8.0% 8.8% 5.3% 14.3% 1.7% 0.8% 0.6% 1.3% x265 info: encoded 71661 frames in 63973.67s (1.12 fps), 4276.16 kb/s, Avg QP:20.58 Общее Уникальный идентификатор : 145615963495316900904154790672102238258 (0x6D8C9D4C70D38D0A6450B3B1A8D2A832) Полное имя : \.Banshee.S02E01.Little.Fish.mkv Формат : Matroska Версия формата : Version 4 Размер файла : 2,18 Гбайт Продолжительность : 50 м. 4 с. Общий поток : 6 237 Кбит/сек Частота кадров : 23,976 кадра/сек Название фильма : Banshee.S02E01.Little.Fish / Мелкая рыбка Трек/Положение : 2 Тип содержимого : TV Show Описание : Особый агент ФБР Джим Расин приезжает в Банши, дабы совершить закрытое федеральное слушание в связи с кровавой перестрелкой (концовка первого сезона), но сходу делается очевидным, что он больше заинтересован в поиске Рэбита. Дата выпуска : 2014-01-10 Дата записи : 2014-01-10 Программа кодирования : mkvmerge v82.0 ('I'm The President') 64-bit Библиотека кодирования : libebml v1.4.5 + libmatroska v1.7.1 Обложка : Yes Attachments : cover.jpg ACTOR : Antony Starr, Ivana Miličević, Ulrich Thomsen, Frankie Faison, Hoon Lee, Trieste Kelly Dunn, Lili Simmons, Anthony Ruivivar, Demetrius Grosse, Matt Servitto, Ryann Shane, Rus Blackwell, Ben Cross, Odette Annable, Gabriel Suttle, Chelsea Cardwell, Der... ARTIST : Antony Starr, Ivana Miličević, Ulrich Thomsen, Frankie Faison, Hoon Lee, Trieste Kelly Dunn, Lili Simmons, Anthony Ruivivar, Demetrius Grosse, Matt Servitto, Ryann Shane, Rus Blackwell, Ben Cross, Odette Annable, Gabriel Suttle, Chelsea Cardwell, Der... DIRECTOR : Greg Yaitanes EPISODE.PART_NUM : 1 GENRE : криминал, драма LAW_RATING : TV-MA PRODUCER : Robert F. Phillips RATING : TV-MA SCREENPLAY_BY : Jonathan Tropper SEASON.PART_NUM : 2 SUMMARY : Особый агент ФБР Джим Расин приезжает в Банши, дабы совершить закрытое федеральное слушание в связи с кровавой перестрелкой (концовка первого сезона), но сходу делается очевидным, что он больше заинтересован в поиске Рэбита. SYNOPSIS : Особый агент ФБР Джим Расин приезжает в Банши, дабы совершить закрытое федеральное слушание в связи с кровавой перестрелкой (концовка первого сезона), но сходу делается очевидным, что он больше заинтересован в поиске Рэбита. Ребекка испытывает противоречивые эмоции в связи с уходом из прошлой судьбы и из-за взрыва в отеле, из-за которого был убит глава горадминистрации, но ее успокаивает Проктор. / / Джобс, Кэрри и Лукас грабят бронированный грузовик из казино, но им удается забрать лишь малую часть денег, по причине того, что им мешает загадочный мотоциклист. WRITTEN_BY : Jonathan Tropper Видео Идентификатор : 1 Формат : HEVC Формат/Информация : High Efficiency Video Coding Профиль формата : Main 10@L4.1@High Идентификатор кодека : V_MPEGH/ISO/HEVC Продолжительность : 49 м. 48 с. Битрейт : 4 277 Кбит/сек Ширина : 1 920 пикселей Высота : 1 080 пикселей Соотношение сторон : 16:9 Режим частоты кадров : Постоянный Частота кадров : 23,976 (24000/1001) кадра/сек Цветовое пространство : YUV Субдискретизация насыщенности : 4:2:0 Битовая глубина : 10 бит Бит/(Пиксели*Кадры) : 0.086 Размер потока : 1,49 Гбайт (68%) Заголовок : Banshee S02E01 / Rip by OldGamer Библиотека кодирования : x265 2.9+9-f74003e88622: 10bit Настройки программы : cpuid=1111039 / frame-threads=14 / numa-pools=12 / wpp / no-pmode / no-pme / no-psnr / no-ssim / log-level=3 / input-csp=1 / input-res=1920x1080 / interlace=0 / total-frames=0 / level-idc=41 / high-tier=1 / uhd-bd=0 / ref=5 / allow-non-conformance / no-repeat-headers / annexb / no-aud / no-hrd / info / hash=0 / no-temporal-layers / open-gop / min-keyint=23 / keyint=240 / gop-lookahead=0 / bframes=11 / b-adapt=2 / b-pyramid / bframe-bias=0 / rc-lookahead=60 / lookahead-slices=6 / scenecut=40 / radl=0 / no-intra-refresh / ctu=64 / min-cu-size=8 / rect / amp / max-tu-size=32 / tu-inter-depth=4 / tu-intra-depth=4 / limit-tu=1 / rdoq-level=2 / dynamic-rd=0.00 / no-ssim-rd / signhide / no-tskip / nr-intra=0 / nr-inter=0 / no-constrained-intra / no-strong-intra-smoothing / max-merge=5 / limit-refs=2 / no-limit-modes / me=3 / subme=7 / merange=57 / temporal-mvp / weightp / weightb / no-analyze-src-pics / deblock=-3:-3 / no-sao / no-sao-non-deblock / rd=6 / no-early-skip / rskip / no-fast-intra / no-tskip-fast / no-cu-lossless / no-b-intra / no-splitrd-skip / rdpenalty=0 / psy-rd=2.00 / psy-rdoq=1.00 / no-rd-refine / no-lossless / cbqpoffs=0 / crqpoffs=0 / rc=crf / crf=20.5 / qcomp=0.65 / qpstep=4 / stats-write=0 / stats-read=0 / vbv-maxrate=50000 / vbv-bufsize=50000 / vbv-init=0.9 / crf-max=0.0 / crf-min=0.0 / ipratio=1.40 / pbratio=1.30 / aq-mode=2 / aq-strength=0.80 / no-cutree / zone-count=0 / no-strict-cbr / qg-size=32 / no-rc-grain / qpmax=69 / qpmin=0 / no-const-vbv / sar=1 / overscan=0 / videoformat=5 / range=0 / colorprim=2 / transfer=2 / colormatrix=2 / chromaloc=0 / display-window=0 / max-cll=0,0 / min-luma=0 / max-luma=1023 / log2-max-poc-lsb=8 / vui-timing-info / vui-hrd-info / slices=1 / no-opt-qp-pps / no-opt-ref-list-length-pps / no-multi-pass-opt-rps / scenecut-bias=0.00 / no-opt-cu-delta-qp / aq-motion / no-hdr / no-hdr-opt / no-dhdr10-opt / no-idr-recovery-sei / analysis-reuse-level=5 / scale-factor=0 / refine-intra=0 / refine-inter=0 / refine-mv=0 / no-limit-sao / ctu-info=0 / no-lowpass-dct / refine-mv-type=0 / copy-pic=1 / max-ausize-factor=1.0 / no-dynamic-refine / no-single-sei Язык : English Default : Да Forced : Нет Цветовой диапазон : Limited Аудио #1 Идентификатор : 2 Формат : AC-3 Формат/Информация : Audio Coding 3 Коммерческое название : Dolby Digital Идентификатор кодека : A_AC3 Продолжительность : 49 м. 48 с. Вид битрейта : Постоянный Битрейт : 384 Кбит/сек Каналы : 6 каналов Channel layout : L R C LFE Ls Rs Частота : 48,0 КГц Частота кадров : 31,250 кадров/сек (1536 SPF) Метод сжатия : С потерями Размер потока : 137 Мбайт (6%) Заголовок : MVO (Пифагор по заказу Amedia) Язык : Russian Service kind : Complete Main Default : Да Forced : Нет Аудио #2 Идентификатор : 3 Формат : AC-3 Формат/Информация : Audio Coding 3 Коммерческое название : Dolby Digital Идентификатор кодека : A_AC3 Продолжительность : 50 м. 4 с. Вид битрейта : Постоянный Битрейт : 384 Кбит/сек Каналы : 6 каналов Channel layout : L R C LFE Ls Rs Частота : 48,0 КГц Частота кадров : 31,250 кадров/сек (1536 SPF) Метод сжатия : С потерями Размер потока : 138 Мбайт (6%) Заголовок : MVO (TVShows) Язык : Russian Service kind : Complete Main Default : Нет Forced : Нет Аудио #3 Идентификатор : 4 Формат : AC-3 Формат/Информация : Audio Coding 3 Коммерческое название : Dolby Digital Идентификатор кодека : A_AC3 Продолжительность : 49 м. 48 с. Вид битрейта : Постоянный Битрейт : 384 Кбит/сек Каналы : 6 каналов Channel layout : L R C LFE Ls Rs Частота : 48,0 КГц Частота кадров : 31,250 кадров/сек (1536 SPF) Метод сжатия : С потерями Размер потока : 137 Мбайт (6%) Заголовок : MVO (NewStudio без цензуры) Язык : Russian Service kind : Complete Main Default : Нет Forced : Нет Аудио #4 Идентификатор : 5 Формат : AC-3 Формат/Информация : Audio Coding 3 Коммерческое название : Dolby Digital Идентификатор кодека : A_AC3 Продолжительность : 49 м. 48 с. Вид битрейта : Постоянный Битрейт : 192 Кбит/сек Каналы : 2 канала Channel layout : L R Частота : 48,0 КГц Частота кадров : 31,250 кадров/сек (1536 SPF) Метод сжатия : С потерями Размер потока : 68,4 Мбайт (3%) Заголовок : MVO (2x2 / Кравец) Язык : Russian Service kind : Complete Main Default : Нет Forced : Нет Аудио #5 Идентификатор : 6 Формат : AC-3 Формат/Информация : Audio Coding 3 Коммерческое название : Dolby Digital Идентификатор кодека : A_AC3 Продолжительность : 50 м. 4 с. Вид битрейта : Постоянный Битрейт : 640 Кбит/сек Каналы : 6 каналов Channel layout : L R C LFE Ls Rs Частота : 48,0 КГц Частота кадров : 31,250 кадров/сек (1536 SPF) Метод сжатия : С потерями Размер потока : 229 Мбайт (10%) Язык : English Service kind : Complete Main Default : Нет Forced : Нет Текст #1 Идентификатор : 7 Формат : UTF-8 Идентификатор кодека : S_TEXT/UTF8 Идентификатор кодека/Информация : UTF-8 Plain Text Продолжительность : 47 м. 56 с. Битрейт : 99 бит/сек Частота кадров : 0,209 кадр/сек Count of elements : 602 Размер потока : 34,8 Кбайт (0%) Заголовок : FullRUS_Amedia Язык : Russian Default : Да Forced : Нет Текст #2 Идентификатор : 8 Формат : UTF-8 Идентификатор кодека : S_TEXT/UTF8 Идентификатор кодека/Информация : UTF-8 Plain Text Продолжительность : 47 м. 53 с. Битрейт : 108 бит/сек Частота кадров : 0,207 кадр/сек Count of elements : 595 Размер потока : 38,0 Кбайт (0%) Заголовок : FullRUS Язык : Russian Default : Нет Forced : Нет Текст #3 Идентификатор : 9 Формат : UTF-8 Идентификатор кодека : S_TEXT/UTF8 Идентификатор кодека/Информация : UTF-8 Plain Text Продолжительность : 47 м. 53 с. Битрейт : 65 бит/сек Частота кадров : 0,256 кадр/сек Count of elements : 736 Размер потока : 22,9 Кбайт (0%) Заголовок : FullENG Язык : English Default : Нет Forced : Нет Меню 00:00:00.000 : en:00:00:00.000 00:07:25.445 : en:00:07:25.445 00:17:35.388 : en:00:17:35.388 00:25:47.463 : en:00:25:47.463 00:33:45.315 : en:00:33:45.315 00:42:40.475 : en:00:42:40.475 00:48:23.609 : en:00:48:23.609
[+] Скриншоты
Релиз от: OldGamer

Всего файлов в раздаче: 10 
Banshee.S02E01.Little.Fish.mkv2.18 GB
Banshee.S02E02.The.Thunder.Man.mkv2.55 GB
Banshee.S02E03.The.Warrior.Class.mkv2.38 GB
Banshee.S02E04.Bloodlines.mkv2.26 GB
Banshee.S02E05.The.Truth.About.Unicorns.mkv2.73 GB
Banshee.S02E06.Armies.of.One.mkv1.98 GB
Banshee.S02E07.Ways.to.Bury.a.Man.mkv2.17 GB
Banshee.S02E08.Evil.For.Evil.mkv2.05 GB
Banshee.S02E09.Homecoming.mkv1.74 GB
Banshee.S02E10.Bullets.and.Tears.mkv2.78 GB

Похожие раздачи по запросу - Банши
2024-02-12 magnet Банши / Banshee [S03] (2015) BDRip-HEVC 1080p от RIPS CLUB | Пифагор, TVShows, NewStudio, 2x2 26.31 GB ↑ 0 ↓ 0
2024-02-04 magnet Банши / Banshee [S01] (2013) BDRip-HEVC 1080p от RIPS CLUB | TVShows, DadLab, NewStudio, 2x2 22.29 GB ↑ 0 ↓ 0
2023-11-11 magnet Банши / Banshee [S01-04] (2013-2016) BDRip | Amedia 2К29.97 GB ↑ 0 ↓ 0
2022-09-30 magnet Месть Банши / Code Name Banshee (2022) BDRip от MegaPeer | D 746.17 MB ↑ 0 ↓ 0

Комментарии


Зарегистрируйтесь чтобы добавить комментарий
Торрент клиент
byTorrent - программа для загрузки торрент-файлов.

Скачать byTorrent.exe (1,5 МБ)

Скачать byTorrent.zip (0,6 МБ)

Поддержи torrent.by
российских рублей
(300 российских рублей это 4$)

Обратная связь rss

End game ©