↑↓torrent.by
Поиск
Логин:  Регистрация
Пароль:

Мистер и миссис Смит / Mr. & Mrs. Smith [S01] (2024) WEB-DLRip-AVC от DoMiNo & селезень | P | HDrezka Studio

download Скачать торрент-файл   magnet Магнитная ссылка Размер: 5.28 GB Раздают: 1 Качают: 0 Добавлен: 2024-02-06 05:00
Пиры будут получены из сети DHT
Последний сидер был замечен сегодня в 22:06
Информация о сериале Название: Мистер и миссис Смит Оригинальное название: Mr. & Mrs. Smith Год выхода: 2024 Жанр: Боевик, триллер, комедия, криминал Режиссер: Кристиан Спренгер В ролях: Дональд Гловер, Майя Эрскин, Пол Дано, Паркер Поузи, Джон Туртурро, Михаэла Коэл, Роберт Лофтус, Алекс Хюн О сериале: Двум агентам необходимо выдавать себя за пару во время опасной миссии. Ситуация осложняется тем, что новоявленные мистер и миссис Смит начинают испытывать симпатию друг к другу. Страна: США, Великобритания Студия: Amazon Studios, New Regency Productions, Wells Street Films Продолжительность: ~00:45:00 серия Перевод: Профессиональный (многоголосый закадровый) | HDRezka Studio Субтитры: Русские (Forced, Full), английские (SDH) Файл Формат: Matroska Качество: WEB-DLRip-AVC Видео: 1024x512 at 24.000 fps, x264@L4.1, ~1810 kbps Аудио: AAC, 2 ch, ~96 kbps - | Русский | Формат субтитров: softsub (SRT) ***Рип от: -=DoMiNo=-
[+] M/IGeneral Unique ID : 249404301608375731021728377209141306434 (0xBBA185721FF04D72DCB9C778F26FA442) Complete name : E:Mr.and.Mrs.Smith.2024.S01.WEB-DLRip.x264.seleZenMr.and.Mrs.Smith.S01E01.WEB-DLRip.x264.seleZen.mkv Format : Matroska Format version : Version 4 File size : 796 MiB Duration : 58 min 20 s Overall bit rate : 1 907 kb/s Frame rate : 24.000 FPS Movie name : Mr.and.Mrs.Smith.S01E01.WEB-DLRip.x264.seleZen Encoded date : 2024-02-05 17:33:59 UTC Writing application : mkvmerge v82.0 ('I'm The President') 64-bit Writing library : libebml v1.4.5 + libmatroska v1.7.1 Cover : Yes Attachments : cover.jpg / small_cover.jpg Video ID : 1 Format : AVC Format/Info : Advanced Video Codec Format profile : High@L4.1 Format settings : CABAC / 10 Ref Frames Format settings, CABAC : Yes Format settings, Reference : 10 frames Codec ID : V_MPEG4/ISO/AVC Duration : 58 min 20 s Bit rate : 1 810 kb/s Width : 1 024 pixels Height : 512 pixels Display aspect ratio : 2.000 Frame rate mode : Constant Frame rate : 24.000 FPS Color space : YUV Chroma subsampling : 4:2:0 Bit depth : 8 bits Scan type : Progressive Bits/(Pixel*Frame) : 0.144 Stream size : 755 MiB (95%) Title : -=DoMiNo=- Writing library : x264 core 152 r2851+58 429492e t_mod_Custom Encoding settings : cabac=1 / ref=10 / deblock=1:-2:-1 / analyse=0x3:0x133 / me=umh / subme=10 / psy=1 / fade_compensate=0.00 / psy_rd=1.00:0.15 / mixed_ref=1 / me_range=32 / chroma_me=1 / trellis=2 / 8x8dct=1 / cqm=0 / deadzone=21,11 / fast_pskip=0 / chroma_qp_offset=-3 / threads=16 / lookahead_threads=4 / sliced_threads=0 / nr=0 / decimate=0 / interlaced=0 / bluray_compat=0 / constrained_intra=0 / fgo=0 / bframes=10 / b_pyramid=2 / b_adapt=2 / b_bias=0 / direct=1 / weightb=1 / open_gop=0 / weightp=2 / keyint=250 / keyint_min=24 / scenecut=40 / intra_refresh=0 / rc_lookahead=60 / rc=crf / mbtree=0 / crf=19.0000 / qcomp=0.60 / qpmin=0:0:0 / qpmax=69:69:69 / qpstep=4 / vbv_maxrate=50000 / vbv_bufsize=62500 / crf_max=0.0 / nal_hrd=none / filler=0 / ip_ratio=1.36 / pb_ratio=1.30 / aq=1:0.90 / aq-sensitivity=10.00 / aq-factor=1.00:1.00:1.00 / aq2=0 / aq3=0 Language : English Default : Yes Forced : No Color range : Limited Color primaries : BT.709 Transfer characteristics : BT.709 Matrix coefficients : BT.709 Audio ID : 2 Format : AAC LC SBR Format/Info : Advanced Audio Codec Low Complexity with Spectral Band Replication Commercial name : HE-AAC Format settings : Explicit Codec ID : A_AAC-2 Duration : 58 min 15 s Bit rate : 96.0 kb/s Channel(s) : 2 channels Channel layout : L R Sampling rate : 48.0 kHz Frame rate : 23.438 FPS (2048 SPF) Compression mode : Lossy Stream size : 39.5 MiB (5%) Title : HDrezka Studio Language : Russian Default : Yes Forced : No Text #1 ID : 3 Format : UTF-8 Codec ID : S_TEXT/UTF8 Codec ID/Info : UTF-8 Plain Text Duration : 48 min 46 s Bit rate : 4 b/s Frame rate : 0.010 FPS Count of elements : 29 Stream size : 1.69 KiB (0%) Title : Forced Language : Russian Default : No Forced : No Text #2 ID : 4 Format : UTF-8 Codec ID : S_TEXT/UTF8 Codec ID/Info : UTF-8 Plain Text Duration : 54 min 40 s Bit rate : 64 b/s Frame rate : 0.187 FPS Count of elements : 612 Stream size : 26.0 KiB (0%) Title : Russian Language : Russian Default : No Forced : No Text #3 ID : 5 Format : UTF-8 Codec ID : S_TEXT/UTF8 Codec ID/Info : UTF-8 Plain Text Duration : 54 min 41 s Bit rate : 49 b/s Frame rate : 0.224 FPS Count of elements : 734 Stream size : 19.6 KiB (0%) Title : English Language : English Default : No Forced : No Text #4 ID : 6 Format : UTF-8 Codec ID : S_TEXT/UTF8 Codec ID/Info : UTF-8 Plain Text Duration : 55 min 8 s Bit rate : 57 b/s Frame rate : 0.267 FPS Count of elements : 885 Stream size : 23.1 KiB (0%) Title : English Language : English Default : No Forced : No
Релиз: Присоединяйся к: Кликай на баннеры.

Всего файлов в раздаче: 8 
Mr.and.Mrs.Smith.S01E01.WEB-DLRip.x264.seleZen.mkv795.92 MB
Mr.and.Mrs.Smith.S01E02.WEB-DLRip.x264.seleZen.mkv611.41 MB
Mr.and.Mrs.Smith.S01E03.WEB-DLRip.x264.seleZen.mkv611.94 MB
Mr.and.Mrs.Smith.S01E04.WEB-DLRip.x264.seleZen.mkv561.31 MB
Mr.and.Mrs.Smith.S01E05.WEB-DLRip.x264.seleZen.mkv728.56 MB
Mr.and.Mrs.Smith.S01E06.WEB-DLRip.x264.seleZen.mkv478.94 MB
Mr.and.Mrs.Smith.S01E07.WEB-DLRip.x264.seleZen.mkv514.88 MB
Mr.and.Mrs.Smith.S01E08.WEB-DLRip.x264.seleZen.mkv1.07 GB

Похожие раздачи по запросу - Мистер
2024-02-08 magnet Мистер и миссис Смит / Mr. & Mrs. Smith [S01] (2024) WEB-DL 1080p от Jaskier | P | Jaskier 29.76 GB ↑ 0 ↓ 0
2024-02-05 magnet Мистер и миссис Смит / Mr. & Mrs. Smith [S01] (2024) WEB-DL 720p | HDrezka Studio 12.43 GB ↑ 0 ↓ 0
2024-02-05 magnet Мистер и миссис Смит / Mr. & Mrs. Smith [S01] (2024) WEB-DL 1080p | P, L | HDrezka Studio, ColdFilm 30.82 GB ↑ 0 ↓ 1
2024-02-05 magnet Мистер и миссис Смит / Mr. & Mrs. Smith [01x01 из 08] (2024) WEB-DL 1080p от Jaskier | P | Jaskier 4.58 GB ↑ 0 ↓ 0
2024-02-03 magnet Мистер и миссис Смит / Mr. & Mrs. Smith [S01] (2024) WEB-DL 1080p | L | ColdFilm 29.76 GB ↑ 0 ↓ 0
2024-02-03 magnet Мистер и миссис Смит / Mr. & Mrs. Smith [S01] (2024) WEBRip 1080p от Kerob | L2 14.61 GB ↑ 0 ↓ 0
2024-02-03 magnet Мистер и миссис Смит / Mr. & Mrs. Smith [S01] (2024) WEBRip от Kerob | L2 3.76 GB ↑ 1 ↓ 0

Комментарии


Зарегистрируйтесь чтобы добавить комментарий
Торрент клиент
byTorrent - программа для загрузки торрент-файлов.

Скачать byTorrent.exe (1,5 МБ)

Скачать byTorrent.zip (0,6 МБ)

Поддержи torrent.by
российских рублей
(300 российских рублей это 4$)

Обратная связь rss

End game ©