↑↓torrent.by
Поиск
Логин:  Регистрация
Пароль:

J Mascis - Label: Sub Pop Records [24-bit Hi-Res] (2024) FLAC

download Скачать торрент-файл   magnet Магнитная ссылка Размер: 996.20 MB Добавлен: 2024-02-06 11:00
Пиры будут получены из сети DHT
Последний сидер был замечен 2024-02-06 19:32
Название: Label: Sub Pop Records Исполнитель: J Mascis Год: 2024 Жанр: Rock Издатель (лейбл): Sub Pop Records Продолжительность: 00:44:38 Формат/Кодек: FLAC Тип рипа: Tracks Битрейт аудио: Lossless Разрядность: 24 Bit/96 kHz
[+] Трек-лист 01. Can't Believe We're Here 02. What Do We Do Now 03. Right Behind You 04. You Don't Understand Me 05. I Can't Find You 06. Old Friends 07. It's True 08. Set Me Down 09. Hangin Out 10. End Is Gettin Shaky
[+] DRM foobar2000 1.5.5 / Замер динамического диапазона (DR) 1.1.1 ------------------------------------------------------------------------------- Анализ: J Mascis / What Do We Do Now -------------------------------------------------------------------------------- DR Пики RMS Продолжительность трека -------------------------------------------------------------------------------- DR7 -0.18 дБ -7.51 дБ 3:58 01-Can't Believe We're Here DR7 -0.18 дБ -7.71 дБ 5:00 02-What Do We Do Now DR7 -0.18 дБ -7.69 дБ 4:20 03-Right Behind You DR8 -0.18 дБ -9.09 дБ 3:51 04-You Don't Understand Me DR8 -0.18 дБ -8.80 дБ 4:24 05-I Can't Find You DR7 -0.18 дБ -8.12 дБ 4:13 06-Old Friends DR7 -0.18 дБ -8.06 дБ 5:17 07-It's True DR7 -0.18 дБ -8.14 дБ 3:53 08-Set Me Down DR7 -0.18 дБ -7.68 дБ 4:54 09-Hangin Out DR7 -0.18 дБ -7.82 дБ 4:48 10-End Is Gettin Shaky -------------------------------------------------------------------------------- Количество треков: 10 Реальные значения DR: DR7 Частота: 96000 Гц Каналов: 2 Разрядность: 24 Битрейт: 3096 кбит/с Кодек: FLAC ================================================================================
Время раздачи: 24/7 (минимум до появления первых 3-5 скачавших, на раздачи не возвращаюсь) Первое правило участника файлообмена: "Скачал сам - дай скачать другому!"

Всего файлов в раздаче: 11 
01. Can't Believe We're Here.flac91.30 MB
02. What Do We Do Now.flac112.04 MB
03. Right Behind You.flac98.26 MB
04. You Don't Understand Me.flac83.67 MB
05. I Can't Find You.flac97.77 MB
06. Old Friends.flac95.52 MB
07. It's True.flac116.22 MB
08. Set Me Down.flac87.15 MB
09. Hangin Out.flac107.74 MB
10. End Is Gettin Shaky.flac106.47 MB
Показать все файлы

Комментарии


Зарегистрируйтесь чтобы добавить комментарий
Торрент клиент
byTorrent - программа для загрузки торрент-файлов.

Скачать byTorrent.exe (1,5 МБ)

Скачать byTorrent.zip (0,6 МБ)

Поддержи torrent.by
российских рублей
(300 российских рублей это 4$)

Обратная связь rss

End game ©