↑↓torrent.by
Поиск
Логин:  Регистрация
Пароль:

Thin Lizzy - Vagabonds Of The Western World [24-bit Hi-Res, Deluxe Edition] (1973/2024) FLAC

download Скачать торрент-файл   magnet Магнитная ссылка Размер: 2.56 GB Раздают: 1 Качают: 0 Добавлен: 2024-02-06 11:00
Пиры будут получены из сети DHT
Последний сидер был замечен сегодня в 21:42
Название: Vagabonds Of The Western World (Deluxe Edition) Исполнитель: Thin Lizzy Год: 1973/2024 Жанр: Metal, Hard-Rock Издатель (лейбл): Decca (UMO) Продолжительность: 03:45:02 Формат/Кодек: FLAC Тип рипа: Tracks Битрейт аудио: Lossless Разрядность: 24 Bit/44,1 kHz
[+] Трек-лист 01. Mama Nature Said 02. The Hero And The Madman 03. Slow Blues 04. The Rocker 05. Vagabond Of The Western World 06. Little Girl In Bloom 07. Gonna Creep Up On You 08. A Song For While I'm Away 09. Whiskey In The Jar 10. Black Boys On The Corner 11. Randolph's Tango 12. Broken Dreams 13. The Rocker (Single Edit) 14. Here I Go Again 15. A Ride In The Lizzy Mobile 16. Whiskey In The Jar (John Peel Session) 17. Suicide (John Peel Session) 18. Black Boys On The Corner (John Peel Session) 19. 1969 Rock (With Intro / RTE Radio Eireann Session / 16th Jan 1973) 20. Suicide (With Intro / RTE Radio Eireann Session / 16th Jan 1973) 21. Broken Dreams (With Intro / RTE Radio Eireann Session / 16th Jan 1973) 22. Eddie's Blues / Blue Shadows (With Intro / RTE Radio Eireann Session / 16th Jan 1973) 23. Vagabond Of The Western World (John Peel Session) 24. Gonna Creep Up On You (John Peel Session) 25. Little Girl In Bloom (John Peel Session) 26. Randolph’s Tango (John Peel Session) 27. The Rocker (John Peel Session) 28. Slow Blues (John Peel Session) 29. Randolph’s Tango (Bob Harris Session) 30. Little Girl In Bloom (Bob Harris Session) 31. The Rocker (Bob Harris Session) 32. The Rocker (Radio One In Concert) 33. Things Ain't Working Out Down At The Farm (Radio One In Concert) 34. Slow Blues (Radio One In Concert) 35. Gonna Creep Up On You (Radio One In Concert) 36. Suicide (Radio One In Concert) 37. The Rocker (Take 1 / Instrumental) 38. Little Girl In Bloom (Take 3) 39. Gonna Creep Up On You (Take 2 / Instrumental) 40. Slow Blues (Take 2 / Instrumental) 41. Here I Go Again (Extended Version) 42. Suicide (gtr Needles And Pins Jam) 43. Whiskey In The Jar (Extended Version / Rough Mix) 44. Black Boys On The Corner (Rough Mix) 45. Gonna Creep Up On You (Acetate Mix) 46. Baby's Been Messin' (Acetate Mix) 47. Whiskey In The Jar (Richard Whittaker Mix)
[+] DRM foobar2000 1.5.5 / Замер динамического диапазона (DR) 1.1.1 ------------------------------------------------------------------------------- Анализ: Thin Lizzy / Vagabonds Of The Western World (Deluxe Edition) -------------------------------------------------------------------------------- DR Пики RMS Продолжительность трека -------------------------------------------------------------------------------- DR10 -0.44 дБ -11.66 дБ 4:54 01-Mama Nature Said DR10 -0.43 дБ -12.57 дБ 6:10 02-The Hero And The Madman DR11 -0.39 дБ -12.94 дБ 5:15 03-Slow Blues DR11 -0.42 дБ -11.53 дБ 5:12 04-The Rocker DR10 -0.43 дБ -12.02 дБ 4:45 05-Vagabond Of The Western World DR12 -0.42 дБ -13.47 дБ 5:15 06-Little Girl In Bloom DR10 -0.41 дБ -11.99 дБ 3:29 07-Gonna Creep Up On You DR11 -0.45 дБ -12.60 дБ 5:13 08-A Song For While I'm Away DR11 -0.43 дБ -12.06 дБ 5:46 09-Whiskey In The Jar DR10 -0.36 дБ -12.28 дБ 3:23 10-Black Boys On The Corner DR11 -0.39 дБ -12.26 дБ 3:48 11-Randolph's Tango DR11 -0.34 дБ -12.89 дБ 4:27 12-Broken Dreams DR11 -0.44 дБ -12.23 дБ 2:42 13-The Rocker (Single Edit) DR11 -0.42 дБ -12.64 дБ 3:53 14-Here I Go Again DR10 -0.41 дБ -12.47 дБ 4:08 15-A Ride In The Lizzy Mobile DR12 -0.45 дБ -13.62 дБ 5:53 16-Whiskey In The Jar (John Peel Session) DR11 -0.43 дБ -12.85 дБ 4:02 17-Suicide (John Peel Session) DR11 -0.41 дБ -13.80 дБ 3:07 18-Black Boys On The Corner (John Peel Session) DR11 -0.43 дБ -12.41 дБ 5:42 19-1969 Rock (With Intro / RTE Radio Eireann Session / 16th Jan 1973) DR11 -0.40 дБ -12.44 дБ 4:32 20-Suicide (With Intro / RTE Radio Eireann Session / 16th Jan 1973) DR11 -0.43 дБ -13.26 дБ 5:40 21-Broken Dreams (With Intro / RTE Radio Eireann Session / 16th Jan 1973) DR11 -0.43 дБ -12.70 дБ 3:58 22-Eddie's Blues / Blue Shadows (With Intro / RTE Radio Eireann Session / 16th Jan 1973) DR11 -0.44 дБ -13.09 дБ 4:24 23-Vagabond Of The Western World (John Peel Session) DR11 -0.44 дБ -12.86 дБ 3:21 24-Gonna Creep Up On You (John Peel Session) DR11 -0.44 дБ -13.53 дБ 4:37 25-Little Girl In Bloom (John Peel Session) DR11 -0.43 дБ -12.35 дБ 3:47 26-Randolph’s Tango (John Peel Session) DR10 -0.43 дБ -12.50 дБ 5:12 27-The Rocker (John Peel Session) DR11 -0.42 дБ -13.16 дБ 5:33 28-Slow Blues (John Peel Session) DR11 -0.45 дБ -13.28 дБ 3:42 29-Randolph’s Tango (Bob Harris Session) DR11 -0.45 дБ -13.60 дБ 4:37 30-Little Girl In Bloom (Bob Harris Session) DR11 -0.44 дБ -11.81 дБ 5:12 31-The Rocker (Bob Harris Session) DR11 -0.42 дБ -13.12 дБ 6:00 32-The Rocker (Radio One In Concert) DR12 -0.41 дБ -13.76 дБ 7:53 33-Things Ain't Working Out Down At The Farm (Radio One In Concert) DR12 -0.41 дБ -15.73 дБ 8:08 34-Slow Blues (Radio One In Concert) DR12 -0.43 дБ -13.51 дБ 3:48 35-Gonna Creep Up On You (Radio One In Concert) DR11 -0.40 дБ -12.64 дБ 4:35 36-Suicide (Radio One In Concert) DR11 -0.43 дБ -11.97 дБ 5:19 37-The Rocker (Take 1 / Instrumental) DR11 -0.40 дБ -12.33 дБ 5:54 38-Little Girl In Bloom (Take 3) DR11 -0.44 дБ -12.04 дБ 4:39 39-Gonna Creep Up On You (Take 2 / Instrumental) DR12 -0.41 дБ -14.15 дБ 5:42 40-Slow Blues (Take 2 / Instrumental) DR12 -0.43 дБ -13.62 дБ 6:44 41-Here I Go Again (Extended Version) DR12 -0.43 дБ -14.62 дБ 1:33 42-Suicide (gtr Needles And Pins Jam) DR11 -0.42 дБ -12.77 дБ 6:01 43-Whiskey In The Jar (Extended Version / Rough Mix) DR11 -0.42 дБ -13.26 дБ 3:47 44-Black Boys On The Corner (Rough Mix) DR11 -0.43 дБ -12.01 дБ 3:33 45-Gonna Creep Up On You (Acetate Mix) DR10 -0.45 дБ -11.91 дБ 4:02 46-Baby's Been Messin' (Acetate Mix) DR11 -0.39 дБ -11.88 дБ 5:45 47-Whiskey In The Jar (Richard Whittaker Mix) -------------------------------------------------------------------------------- Количество треков: 47 Реальные значения DR: DR11 Частота: 44100 Гц Каналов: 2 Разрядность: 24 Битрейт: 1741 кбит/с Кодек: FLAC ================================================================================
Время раздачи: 24/7 (минимум до появления первых 3-5 скачавших, на раздачи не возвращаюсь) Первое правило участника файлообмена: "Скачал сам - дай скачать другому!"

Всего файлов в раздаче: 48 
01 Mama Nature Said.flac59.17 MB
02 The Hero And The Madman.flac73.00 MB
03 Slow Blues.flac58.58 MB
04 The Rocker.flac62.62 MB
05 Vagabond Of The Western World.flac57.01 MB
06 Little Girl In Bloom.flac61.40 MB
07 Gonna Creep Up On You.flac40.97 MB
08 A Song For While I'm Away.flac62.96 MB
09 Whiskey In The Jar.flac71.21 MB
10 Black Boys On The Corner.flac42.13 MB
Показать все файлы

Похожие раздачи по запросу - Thin
2024-02-06 magnet Thin Lizzy - Vagabonds Of The Western World [Deluxe Edition] (1973/2024) MP3 521.79 MB ↑ 0 ↓ 0
2024-02-01 magnet Тонкая красная линия / The Thin Red Line (1998) BDRip 1080p | D 7.76 GB ↑ 0 ↓ 0
2024-01-01 magnet Тонкая красная линия / The Thin Red Line (1998) BDRip-AVC от NovaLan 6.41 GB ↑ 0 ↓ 0

Комментарии


Зарегистрируйтесь чтобы добавить комментарий
Торрент клиент
byTorrent - программа для загрузки торрент-файлов.

Скачать byTorrent.exe (1,5 МБ)

Скачать byTorrent.zip (0,6 МБ)

Поддержи torrent.by
российских рублей
(300 российских рублей это 4$)

Обратная связь rss

End game ©