↑↓torrent.by
Поиск
Логин:  Регистрация
Пароль:

С богами: Два мира / Singwa hamkke: joewa beol / Along with the Gods: The Two Worlds (2017) WEB-DL 1080p | P | Ivi

download Скачать торрент-файл   magnet Магнитная ссылка Размер: 5.73 GB Добавлен: 2024-02-06 11:00
Пиры будут получены из сети DHT
Последний сидер был замечен 2024-02-13 14:50
Информация о фильме Название: С богами: Два мира Оригинальное название: Singwa hamkke: joewa beol / Along with the Gods: The Two Worlds Год выпуска: 2017 Жанр: фэнтези, приключения, драма, детектив Выпущено: Корея Южная / Dexter Studios, Realies Pictures Режиссер: Ким Ён-хва В ролях:Чха Тхэ-хён, Ха Джон-у, Чу Джи-хун, Ким Хян-ги, Ким Дон-ук, О Даль-су, Лим Вон-хи, То Гён-су, Ли Джун-хёк, Е Су-джон Описание: Спасая ребёнка из горящего здания, пожарный Ким Джа-хон погибает героической смертью. И тут же три ангела смерти сопровождают его в мир мёртвых, где смертному предстоит пройти семь судов и держать ответ перед семью Богами. Ангелы будут его защитниками, и если Джа-хона признают безгрешным, он получит возможность реинкарнироваться и начать новую жизнь. Возраст: 16+ (зрителям, достигшим 16 лет) Продолжительность: 02:19:31 Перевод: Многоголосый профессиональный (IVI) Субтитры: Отсутствуют Файл Формат: MKV Качество: WEB-DL 1080p Видео: AVC/H.264, 1920x802, ~5120 Kbps Аудио 1: AAC, 2 ch, 256 Kbps - Русский (MVO) Аудио 2: AAC, 6 ch, 512 Kbps - Корейский Релиз от: karfagen1975
[+] MediaInfo:General Unique ID : 247567340746918778928521546326112256683 (0xBA3FBC486578674B7F68F2829094C2AB) Complete name : Along with the Gods The Two Worlds (2017) WEB-DL 1080p.mkv Format : Matroska Format version : Version 4 File size : 5.73 GiB Duration : 2 h 19 min Overall bit rate : 5 876 kb/s Frame rate : 24.000 FPS Encoded date : 2024-02-04 15:31:11 UTC Writing application : mkvmerge v75.0.0 ('Goliath') 64-bit Writing library : libebml v1.4.4 + libmatroska v1.7.1 Video ID : 1 Format : AVC Format/Info : Advanced Video Codec Format profile : High@L4 Format settings : CABAC / 4 Ref Frames Format settings, CABAC : Yes Format settings, Reference frames : 4 frames Codec ID : V_MPEG4/ISO/AVC Duration : 2 h 19 min Bit rate : 5 120 kb/s Width : 1 920 pixels Height : 802 pixels Display aspect ratio : 2.40:1 Frame rate mode : Constant Frame rate : 24.000 FPS Color space : YUV Chroma subsampling : 4:2:0 Bit depth : 8 bits Scan type : Progressive Bits/(Pixel*Frame) : 0.139 Stream size : 4.97 GiB (87%) Title : Наедине с богами: Два мира (2017) WEB-DL 1080p Writing library : x264 core 152 r2854 e9a5903 Encoding settings : cabac=1 / ref=3 / deblock=1:0:0 / analyse=0x3:0x113 / me=hex / subme=7 / psy=1 / psy_rd=1.00:0.00 / mixed_ref=1 / me_range=16 / chroma_me=1 / trellis=1 / 8x8dct=1 / cqm=0 / deadzone=21,11 / fast_pskip=1 / chroma_qp_offset=-2 / threads=25 / lookahead_threads=4 / sliced_threads=0 / nr=0 / decimate=1 / interlaced=0 / bluray_compat=0 / constrained_intra=0 / bframes=6 / b_pyramid=2 / b_adapt=1 / b_bias=0 / direct=1 / weightb=1 / open_gop=0 / weightp=2 / keyint=48 / keyint_min=25 / scenecut=0 / intra_refresh=0 / rc_lookahead=40 / rc=2pass / mbtree=1 / bitrate=5120 / ratetol=1.0 / qcomp=0.60 / qpmin=0 / qpmax=69 / qpstep=4 / cplxblur=20.0 / qblur=0.5 / vbv_maxrate=7680 / vbv_bufsize=20480 / nal_hrd=none / filler=0 / ip_ratio=1.40 / aq=1:1.00 Language : Korean Default : Yes Forced : No Audio #1 ID : 2 Format : AAC LC Format/Info : Advanced Audio Codec Low Complexity Codec ID : A_AAC-2 Duration : 2 h 19 min Bit rate : 256 kb/s Channel(s) : 2 channels Channel layout : L R Sampling rate : 48.0 kHz Frame rate : 46.875 FPS (1024 SPF) Compression mode : Lossy Stream size : 255 MiB (4%) Title : MVO Language : Russian Default : No Forced : No Audio #2 ID : 3 Format : AAC LC Format/Info : Advanced Audio Codec Low Complexity Codec ID : A_AAC-2 Duration : 2 h 19 min Bit rate : 512 kb/s Channel(s) : 6 channels Channel layout : C L R Ls Rs LFE Sampling rate : 48.0 kHz Frame rate : 46.875 FPS (1024 SPF) Compression mode : Lossy Stream size : 511 MiB (9%) Language : Korean Default : No Forced : No
[+] Знаете ли вы, что…Оригинальное название фильма можно перевести как «С Богами: Преступление и наказание». Фильмы «С Богами: Два мира» и «С Богами: Последние 49 дней» снимались одновременно — c 26 мая 2016 по 22 марта 2017 года. В оригинальном вебтуне Чу Хо-мина 3 части: «После смерти», «Жизнь», «Миф». Сюжет фильма фокусируется на событиях первой части. Ким У-бину была предложена главная роль, но он отклонил предложение.
[+] Скриншоты
[+] Дополнительные скриншоты:

Всего файлов в раздаче: 1 
Along with the Gods The Two Worlds (2017) WEB-DL 1080p.mkv5.73 GB

Похожие раздачи по запросу - богами
2024-02-06 magnet С богами: Последние 49 дней / Singwa hamkke: ingwa yeon / Along with the Gods: The Last 49 Days (2018) WEB-DL 1080p | P | Ivi 5.55 GB ↑ 0 ↓ 1

Комментарии


Зарегистрируйтесь чтобы добавить комментарий
Торрент клиент
byTorrent - программа для загрузки торрент-файлов.

Скачать byTorrent.exe (1,5 МБ)

Скачать byTorrent.zip (0,6 МБ)

Поддержи torrent.by
российских рублей
(300 российских рублей это 4$)

Обратная связь rss

End game ©