↑↓torrent.by
Поиск
Логин:  Регистрация
Пароль:

Как друзья Захара женили [S01] (2023) WEB-DLRip

download Скачать торрент-файл   magnet Магнитная ссылка Размер: 6.06 GB Добавлен: 2024-02-06 11:00
Пиры будут получены из сети DHT
Последний сидер был замечен 2024-03-03 14:53
Информация о сериале Оригинальное название: Как друзья Захара женили / Захар открывает глаза Год выпуска: 2023 Жанр: Мелодрама, комедия, драма Выпущено: Россия, Good Story Media Режиссер: Борис Дергачёв, Павел Кривчик В ролях: Сергей Бондарчук (младший), Владимир Канухин, Никита Павленко, Борис Дергачёв, Даниил Вахрушев, Юлия Франц, Антон Филипенко, Анна Котова (II), Александра Ребенок, Софья Зайка, Анастасия Евграфова, Анастасия Резник, Денис Яковлев, Максим Лагашкин, Сергей Сгибнев О сериале: Жизнь Захар в одночасье перевернулась, когда накануне свадьбы и медового месяца в «ультра-олл-инклюзив» Египте его невеста Алёна решила, что они слишком разные. Оплаченный медовый месяц не случится, мальчишник превращается в сеанс терапии со стриптизёршей вместо психолога, а пришедшие на него друзья – Юрок, Макс, Игорёк – берутся за решение вопроса, как им всё-таки женить Захара. Первым делом они начинают слежку за Алёной, чтобы узнать, не изменяла ли она жениху. Так они встречают Жеку – молодого и манерного альфонса. Его умение втираться в доверие к женщинам друзья решают использовать, но в процессе узнают многое и о себе. Страна: Россия Студия: Кинокомпания "Good Story Media" Продолжительность: 17x ~ 00:24:35 Файл Формат: AVI Качество: WEB-DLRip Видео: XviD, ~ 1650 Кбит/с, 720x352 Аудио: AC3, 2 ch, 256 Кбит/с Язык: Русский Cубтитры: Русские
[+] MIGeneral Complete name : W:Kak.druzja.Zakhara.zhenili.S01.2023.WEB-DLRip.DenSBKKak.druzja.Zakhara.zhenili.S01.E01.2023.WEB-DLRip.DenSBK.avi Format : AVI Format/Info : Audio Video Interleave File size : 337 MiB Duration : 24 min 35 s Overall bit rate : 1 915 kb/s Writing application : VirtualDubMod 1.5.10.3 | www.virtualdub-fr.org || (build 2550/release) Writing library : VirtualDubMod build 2550/release Video ID : 0 Format : MPEG-4 Visual Format profile : Advanced Simple@L5 Format settings : BVOP1 / Custom Matrix Format settings, BVOP : 1 Format settings, QPel : No Format settings, GMC : No warppoints Format settings, Matrix : Custom Codec ID : XVID Codec ID/Hint : XviD Duration : 24 min 35 s Bit rate : 1 649 kb/s Width : 720 pixels Height : 352 pixels Display aspect ratio : 2.045 Frame rate : 25.000 FPS Color space : YUV Chroma subsampling : 4:2:0 Bit depth : 8 bits Scan type : Progressive Compression mode : Lossy Bits/(Pixel*Frame) : 0.260 Stream size : 290 MiB (86%) Writing library : XviD 73 Audio ID : 1 Format : AC-3 Format/Info : Audio Coding 3 Codec ID : 2000 Duration : 24 min 35 s Bit rate mode : Constant Bit rate : 256 kb/s Channel(s) : 2 channels Channel positions : Front: L R Sampling rate : 48.0 kHz Frame rate : 31.250 FPS (1536 SPF) Bit depth : 16 bits Compression mode : Lossy Stream size : 45.0 MiB (13%) Alignment : Split accross interleaves Interleave, duration : 40 ms (1.00 video frame) Interleave, preload duratio : 500 ms Service kind : Complete Main
[+] Скриншоты

Всего файлов в раздаче: 34 
Kak.druzja.Zakhara.zhenili.S01.E01.2023.WEB-DLRip.DenSBK.avi336.88 MB
Kak.druzja.Zakhara.zhenili.S01.E01.2023.WEB-DLRip.DenSBK.srt30.72 kB
Kak.druzja.Zakhara.zhenili.S01.E02.2023.WEB-DLRip.DenSBK.avi394.41 MB
Kak.druzja.Zakhara.zhenili.S01.E02.2023.WEB-DLRip.DenSBK.srt37.42 kB
Kak.druzja.Zakhara.zhenili.S01.E03.2023.WEB-DLRip.DenSBK.avi341.39 MB
Kak.druzja.Zakhara.zhenili.S01.E03.2023.WEB-DLRip.DenSBK.srt35.66 kB
Kak.druzja.Zakhara.zhenili.S01.E04.2023.WEB-DLRip.DenSBK.avi374.07 MB
Kak.druzja.Zakhara.zhenili.S01.E04.2023.WEB-DLRip.DenSBK.srt34.19 kB
Kak.druzja.Zakhara.zhenili.S01.E05.2023.WEB-DLRip.DenSBK.avi319.98 MB
Kak.druzja.Zakhara.zhenili.S01.E05.2023.WEB-DLRip.DenSBK.srt29.32 kB
Показать все файлы

Похожие раздачи по запросу - Как
Вчера magnet Как Деревянко Ломоносова играл [S01] (2024) WEB-DLRip-AVC от Generalfilm | КПК 1.40 GB ↑ 0 ↓ 0
2024-03-03 magnet Вячеслав Желудков - Как вылечить ВСД. Мой опыт (2020) PDF 534.25 kB ↑ 0 ↓ 0
2024-03-01 magnet Как приручить монстров / Ханна и монстры / Hanna y los monstruos / Hanna i els monstres (2023) WEB-DL 1080p | D 2.89 GB ↑ 0 ↓ 1
2024-03-01 magnet Как Деревянко Ломоносова играл [S01] (2024) WEB-DLRip-AVC от Files-x 3.95 GB ↑ 0 ↓ 0
2024-03-01 magnet Как Деревянко Ломоносова играл [S01] (2024) WEB-DL 1080p 1К9.19 GB ↑ 0 ↓ 0
2024-03-01 magnet Как Деревянко Ломоносова играл [S01] (2023) WEB-DL 720p от Files-x 4.86 GB ↑ 0 ↓ 0
2024-03-01 magnet Как Деревянко Ломоносова играл [S01] (2024) WEB-DLRip 4.09 GB ↑ 0 ↓ 0

Комментарии


Зарегистрируйтесь чтобы добавить комментарий
Торрент клиент
byTorrent - программа для загрузки торрент-файлов.

Скачать byTorrent.exe (1,5 МБ)

Скачать byTorrent.zip (0,6 МБ)

Поддержи torrent.by
российских рублей
(300 российских рублей это 4$)

Обратная связь rss

End game ©