↑↓torrent.by
Поиск
Логин:  Регистрация
Пароль:

Опавшие листья / Kuolleet lehdet / Fallen Leaves (2023) HDRip-AVC | КПК | A

download Скачать торрент-файл   magnet Магнитная ссылка Размер: 455.48 MB Раздают: 1 Качают: 0 Добавлен: 2024-02-06 17:00
Пиры будут получены из сети DHT
Последний сидер был замечен сегодня в 11:38
Информация о фильме Название: Опавшие листья Оригинальное название: Kuolleet lehdet Год выхода: 2023 Жанр: драма, комедия Режиссер: Аки Каурисмяки В ролях: Альма Пёвсти, Юсси Ватанен, Алина Томникова, Мартти Суосало, Янне Хюютияйнен, Сакари Куосманен, Нуппу Койву, Шерван Хаджи, Паула Ойнонен, Мария Хайсканен О фильме: История двух одиноких людей, которые случайно встречаются в ночном Хельсинки. Они пытаются найти первую и последнюю любовь в своей жизни. Страна: Финляндия, Германия Студия: Sputnik, Bufo, Pandora Film Продолжительность: 01:21:22 Перевод: Aвторский (одноголосый, закадровый) | М. Чадов Файл Формат: MPEG-4 Base Media Качество: HDRip-AVC (исх. BDRip 720p от ExKinoRay) Видео: High@L3.2, 640x346, at 24.000 fps, 710 kbps Аудио: AAC LC SBR, 48.0 kHz, 2 ch, 72 kbps Субтитры: Russian (Forced, Full)
[+] MediaInfoGeneral Complete name : Fallen.Leaves.2023.AVO.HDRip.mp4 Format : MPEG-4 Format profile : Base Media Codec ID : isom (isom/avc1) File size : 455 MiB Duration : 1 h 21 min Overall bit rate mode : Variable Overall bit rate : 783 kb/s Encoded date : UTC 2024-02-05 08:05:21 Tagged date : UTC 2024-02-05 08:05:21 Video ID : 1 Format : AVC Format/Info : Advanced Video Codec Format profile : High@L3.2 Format settings : CABAC / 14 Ref Frames Format settings, CABAC : Yes Format settings, RefFrames : 14 frames Codec ID : avc1 Codec ID/Info : Advanced Video Coding Duration : 1 h 21 min Bit rate : 710 kb/s Maximum bit rate : 2 313 kb/s Width : 640 pixels Height : 346 pixels Display aspect ratio : 1.85:1 Frame rate mode : Constant Frame rate : 24.000 FPS Color space : YUV Chroma subsampling : 4:2:0 Bit depth : 8 bits Scan type : Progressive Bits/(Pixel*Frame) : 0.134 Stream size : 412 MiB (90%) Title : Kuolleet lehdet Writing library : x264 core 133 r2334 a3ac64b Encoding settings : cabac=1 / ref=14 / deblock=1:0:0 / analyse=0x3:0x113 / me=umh / subme=10 / psy=1 / psy_rd=0.88:0.00 / mixed_ref=1 / me_range=24 / chroma_me=1 / trellis=2 / 8x8dct=1 / cqm=0 / deadzone=21,11 / fast_pskip=0 / chroma_qp_offset=-2 / threads=6 / lookahead_threads=1 / sliced_threads=0 / nr=600 / decimate=0 / interlaced=0 / bluray_compat=0 / constrained_intra=0 / bframes=14 / b_pyramid=2 / b_adapt=2 / b_bias=0 / direct=1 / weightb=1 / open_gop=0 / weightp=2 / keyint=240 / keyint_min=24 / scenecut=40 / intra_refresh=0 / rc=2pass / mbtree=0 / bitrate=710 / ratetol=1.0 / qcomp=0.58 / qpmin=0 / qpmax=69 / qpstep=4 / cplxblur=20.0 / qblur=0.5 / ip_ratio=1.22 / pb_ratio=1.48 / aq=1:1.00 Language : Finnish Encoded date : UTC 2024-02-05 08:05:21 Tagged date : UTC 2024-02-05 08:05:37 Codec configuration box : avcC Audio ID : 2 Format : AAC LC SBR Format/Info : Advanced Audio Codec Low Complexity with Spectral Band Replication Commercial name : HE-AAC Format settings : Explicit Codec ID : mp4a-40-2 Duration : 1 h 21 min Bit rate mode : Variable Bit rate : 72.0 kb/s Maximum bit rate : 168 kb/s Channel(s) : 2 channels Channel layout : L R Sampling rate : 48.0 kHz Frame rate : 23.438 FPS (2048 SPF) Compression mode : Lossy Stream size : 41.9 MiB (9%) Title : AVO - Chadov Language : Russian Encoded date : UTC 2024-02-05 08:05:32 Tagged date : UTC 2024-02-05 08:05:37 Text #1 ID : 3 Format : Timed Text Codec ID : tx3g Duration : 36 min 52 s Bit rate mode : Variable Bit rate : 8 b/s Stream size : 2.29 KiB (0%) Title : Forced Language : Russian Forced : No Encoded date : UTC 2024-02-05 08:05:37 Tagged date : UTC 2024-02-05 08:05:37 Text #2 ID : 4 Format : Timed Text Codec ID : tx3g Duration : 1 h 18 min Bit rate mode : Variable Bit rate : 55 b/s Stream size : 31.6 KiB (0%) Title : Full Language : Russian Forced : No Encoded date : UTC 2024-02-05 08:05:37 Tagged date : UTC 2024-02-05 08:05:37
[+] Скриншоты

Всего файлов в раздаче: 1 
Fallen.Leaves.2023.AVO.HDRip.mp4455.48 MB

Похожие раздачи по запросу - Опавшие
2024-02-05 magnet Опавшие листья / Fallen Leaves / Kuolleet lehdet (2023) BDRip 1080p от DoMiNo & селезень | A, L1 5.81 GB ↑ 0 ↓ 0
2024-02-04 magnet Опавшие листья / Kuolleet Lehdet / Fallende Blatter (2023) HDRip-AVC | L1 1.46 GB ↑ 0 ↓ 0
2024-02-04 magnet Опавшие листья / Fallen Leaves / Kuolleet lehdet (2023) BDRip 720p от ExKinoRay | A 5.02 GB ↑ 0 ↓ 0
2024-02-04 magnet Опавшие листья / Fallen Leaves / Kuolleet lehdet (2023) BDRip-AVC от DoMiNo & селезень | A | Чадов 1.44 GB ↑ 0 ↓ 0
2024-02-04 magnet Опавшие листья / Fallen Leaves / Kuolleet lehdet (2023) BDRip от New-Team | A | Чадов 1.37 GB ↑ 0 ↓ 0

Комментарии


Зарегистрируйтесь чтобы добавить комментарий
Торрент клиент
byTorrent - программа для загрузки торрент-файлов.

Скачать byTorrent.exe (1,5 МБ)

Скачать byTorrent.zip (0,6 МБ)

Поддержи torrent.by
российских рублей
(300 российских рублей это 4$)

Обратная связь rss

End game ©