↑↓torrent.by
Поиск
Логин:  Регистрация
Пароль:

Отель Хазбин / Hazbin Hotel [S01] (2024) WEB-DLRip 1080p от Jaskier | P | Jaskier

download Скачать торрент-файл   magnet Магнитная ссылка Размер: 8.35 GB Добавлен: 2024-02-06 17:00
Пиры будут получены из сети DHT
Последний сидер был замечен 2024-02-24 10:41
Информация о фильме Название: Отель Хазбин Оригинальное название: Hazbin Hotel Год выхода: 2024 Жанр: мультфильм, фэнтези, ужасы, драма, комедия, мюзикл Режиссер: Вивьенн Медрано В ролях: Джилл Харрис, Элси Лавлок, Майкл Ковач, Моника Франко, Эдвард Боско О фильме: Отель Хазбин рассказывает о Чарли, принцессе Ада, которая преследует свою, казалось бы, невыполнимую цель - перевоспитать демонов, чтобы мирно сократить перенаселение в своем королевстве. После ежегодного истребления, навязанного Небесами, она открывает отель в надежде, что покровители будут "выписываться". после того, как докажут, что их души можно искупить. Официальный сайт Страна: США Студия: A24, SpindleHorse Toons Продолжительность: 00:25:00 Перевод: профессиональный (многоголосый закадровый) Jaskier Файл Кодек: MKV Качество: WEB-DL 1080p Видео: AVC, 1920x1080 (16:9), 23.976 fps, 4500 kbps Звук: Аудио 1: Русский, AC-3, 48 kHz, 6 ch, 384 kbps | Jaskier Аудио 2: Английский, EAC-3, 48 kHz, 6 ch, 640 kbps Субтитры: Русские, вшитые на песни Семпл
[+] Список серий 00. Пилот / Pilot 01. Увертюра / Overture 02. Радио убило видеозвезду / Radio Killed the Video Star 03. Яичница-болтунья / Scrambled Eggs 04. Маскарад / Masquerade 05. Папа бьёт папу / Dad Beat Dad 06. Добро пожаловать в Рай / Welcome to Heaven 07. Привет, Рози! / Hello Rosie! 08. Шоу должно продолжаться / The Show Must Go On
[+] Тех. данные 0 серии Видео: AVC, 1920x1080 (16:9), 23.976 fps, 3080 kbps Аудио №1: Русский, AC-3, 48 kHz, 2 ch, 192 kbps | Jaskier Аудио №2: Английский, AAC, 44,1 kHz, 2 ch
[+] Подробные технические данные General Unique ID : 239599008958935270405372212055528210382 (0xB44117318EF67152B69BFD484BD47FCE) Complete name : E:TorrentHazbin.Hotel.S01.JaskierHazbin.Hotel.S01E01.Overture.1080p.AMZN.WEB-DL.DDP5.1.H.264-NTb.mkv Format : Matroska Format version : Version 4 File size : 974 MiB Duration : 24 min 42 s Overall bit rate : 5 512 kb/s Encoded date : UTC 2024-01-20 08:09:51 Writing application : mkvmerge v6.6.0 ('The Edge Of The In Between') built on Dec 1 2013 17:55:00 Writing library : libebml v1.3.0 + libmatroska v1.4.1 Video ID : 1 Format : AVC Format/Info : Advanced Video Codec Format profile : High@L5 Format settings : CABAC / 5 Ref Frames Format settings, CABAC : Yes Format settings, Reference frames : 5 frames Codec ID : V_MPEG4/ISO/AVC Bit rate : 4 500 kb/s Width : 1 920 pixels Height : 1 080 pixels Display aspect ratio : 16:9 Frame rate mode : Variable Color space : YUV Chroma subsampling : 4:2:0 Bit depth : 8 bits Scan type : Progressive Writing library : x264 core 157 Encoding settings : cabac=1 / ref=5 / deblock=1:0:0 / analyse=0x3:0x113 / me=hex / subme=8 / psy=1 / psy_rd=1.00:0.00 / mixed_ref=1 / me_range=16 / chroma_me=1 / trellis=2 / 8x8dct=1 / cqm=0 / deadzone=21,11 / fast_pskip=1 / chroma_qp_offset=-2 / threads=34 / lookahead_threads=5 / sliced_threads=0 / nr=0 / decimate=1 / interlaced=0 / bluray_compat=0 / constrained_intra=0 / bframes=3 / b_pyramid=2 / b_adapt=1 / b_bias=0 / direct=3 / weightb=1 / open_gop=0 / weightp=2 / keyint=250 / keyint_min=23 / scenecut=40 / intra_refresh=0 / rc_lookahead=40 / rc=2pass / mbtree=1 / bitrate=4500 / ratetol=1.0 / qcomp=0.60 / qpmin=0 / qpmax=69 / qpstep=4 / cplxblur=20.0 / qblur=0.5 / vbv_maxrate=6912 / vbv_bufsize=9216 / nal_hrd=none / filler=0 / ip_ratio=1.40 / aq=1:1.00 Default : Yes Forced : No Color range : Limited Color primaries : BT.709 Transfer characteristics : BT.709 Matrix coefficients : BT.709 Audio #1 ID : 2 Format : AC-3 Format/Info : Audio Coding 3 Commercial name : Dolby Digital Codec ID : A_AC3 Duration : 24 min 42 s Bit rate mode : Constant Bit rate : 384 kb/s Channel(s) : 6 channels Channel layout : L R C LFE Ls Rs Sampling rate : 48.0 kHz Frame rate : 31.250 FPS (1536 SPF) Compression mode : Lossy Stream size : 67.9 MiB (7%) Title : Jaskier Language : Russian Service kind : Complete Main Default : Yes Forced : Yes Audio #2 ID : 3 Format : E-AC-3 Format/Info : Enhanced AC-3 Commercial name : Dolby Digital Plus Codec ID : A_EAC3 Duration : 24 min 42 s Bit rate mode : Constant Bit rate : 640 kb/s Channel(s) : 6 channels Channel layout : L R C LFE Ls Rs Sampling rate : 48.0 kHz Frame rate : 31.250 FPS (1536 SPF) Compression mode : Lossy Stream size : 113 MiB (12%) Title : Original Language : English Service kind : Complete Main Default : No Forced : No
[+] Скриншоты
Релиз от: Jaskier

Всего файлов в раздаче: 9 
Hazbin.Hotel.S01E00.Pilot.Jaskier.mkv770.70 MB
Hazbin.Hotel.S01E01.Overture.1080p.AMZN.WEB-DL.DDP5.1.H.264-NTb.mkv974.48 MB
Hazbin.Hotel.S01E02.Radio.Killed.the.Video.Star.1080p.AMZN.WEB-DL.DDP5.1.H.264-NTb.mkv968.75 MB
Hazbin.Hotel.S01E03.Scrambled.Eggs.1080p.AMZN.WEB-DL.DDP5.1.H.264-NTb.Jaskier.mkv964.97 MB
Hazbin.Hotel.S01E04.Masquerade.1080p.AMZN.WEB-DL.DDP5.1.H.264-NTb.Jaskier.mkv964.86 MB
Hazbin.Hotel.S01E05.Dad.Beat.Dad.1080p.AMZN.WEB-DL.DDP5.1.H.264-NTb.Jaskier.mkv973.56 MB
Hazbin.Hotel.S01E06.Welcome.to.Heaven.1080p.AMZN.WEB-DL.DDP5.1.H.264-NTb.Jaskier.mkv974.91 MB
Hazbin.Hotel.S01E07.Hello.Rosie.1080p.AMZN.WEB-DL.DDP5.1.H.264-NTb.Jaskier.mkv974.52 MB
Hazbin.Hotel.S01E08.The.Show.Must.Go.On.1080p.AMZN.WEB-DL.DDP5.1.H.264-NTb.Jaskier.mkv978.67 MB

Похожие раздачи по запросу - Отель
2024-02-04 magnet Отель Хазбин / Hazbin Hotel [S01] (2024) WEB-DL 1080p от Jaskier | P | Jaskier 8.35 GB ↑ 1 ↓ 0
2024-02-03 magnet Отель Хазбин / Hazbin Hotel [01x00-06 из 08] (2024) WEB-DLRip 1080p от Jaskier | P | Jaskier 6.44 GB ↑ 0 ↓ 0
2024-01-24 magnet Отель Хазбин / Hazbin Hotel [01x00-04] (2024) WEB-DLRip 1080p | Jaskier 4.51 GB ↑ 0 ↓ 0
2024-01-21 magnet Отель Хазбин / Hazbin Hotel [01x00-02 из 8] (2024) WEB-DLRip 1080p | Jaskier 2.65 GB ↑ 0 ↓ 0

Комментарии


Зарегистрируйтесь чтобы добавить комментарий
Торрент клиент
byTorrent - программа для загрузки торрент-файлов.

Скачать byTorrent.exe (1,5 МБ)

Скачать byTorrent.zip (0,6 МБ)

Поддержи torrent.by
российских рублей
(300 российских рублей это 4$)

Обратная связь rss

End game ©