↑↓torrent.by
Поиск
Логин:  Регистрация
Пароль:

The Smile - Wall Of Eyes [24-bit Hi-Res] (2024) FLAC

download Скачать торрент-файл   magnet Магнитная ссылка Размер: 509.22 MB Добавлен: 2024-02-07 05:00
Пиры будут получены из сети DHT
Последний сидер был замечен 2024-02-10 13:39
Название: Wall Of Eyes Исполнитель: The Smile Год: 2024 Жанр: Alternative-Rock Издатель (лейбл): XL Recordings Продолжительность: 00:45:17 Формат/Кодек: FLAC Тип рипа: Tracks Битрейт аудио: Lossless Разрядность: 24 Bit/44,1 kHz
[+] Трек-лист 01. Wall Of Eyes 02. Teleharmonic 03. Read The Room 04. Under Our Pillows 05. Friend Of A Friend 06. I Quit 07. Bending Hectic 08. You Know Me!
[+] DRM foobar2000 1.5.5 / Замер динамического диапазона (DR) 1.1.1 ------------------------------------------------------------------------------- Анализ: The Smile / Wall Of Eyes -------------------------------------------------------------------------------- DR Пики RMS Продолжительность трека -------------------------------------------------------------------------------- DR7 -0.04 дБ -10.16 дБ 5:06 01-Wall Of Eyes DR8 -0.15 дБ -11.55 дБ 5:10 02-Teleharmonic DR7 -0.06 дБ -9.64 дБ 5:14 03-Read The Room DR8 -0.03 дБ -10.11 дБ 6:14 04-Under Our Pillows DR7 -0.06 дБ -9.60 дБ 4:35 05-Friend Of A Friend DR6 -0.16 дБ -8.54 дБ 5:32 06-I Quit DR7 -0.08 дБ -9.84 дБ 8:04 07-Bending Hectic DR7 -0.16 дБ -10.10 дБ 5:22 08-You Know Me! -------------------------------------------------------------------------------- Количество треков: 8 Реальные значения DR: DR7 Частота: 44100 Гц Каналов: 2 Разрядность: 24 Битрейт: 1361 кбит/с Кодек: FLAC ================================================================================
Время раздачи: 24/7 (минимум до появления первых 3-5 скачавших, на раздачи не возвращаюсь) Первое правило участника файлообмена: "Скачал сам - дай скачать другому!"

Всего файлов в раздаче: 9 
01. Wall Of Eyes.flac54.77 MB
02. Teleharmonic.flac58.46 MB
03. Read The Room.flac61.46 MB
04. Under Our Pillows.flac73.64 MB
05. Friend Of A Friend.flac51.97 MB
06. I Quit.flac58.38 MB
07. Bending Hectic.flac90.06 MB
08. You Know Me!.flac56.37 MB
cover.jpg4.11 MB

Комментарии


Зарегистрируйтесь чтобы добавить комментарий
Торрент клиент
byTorrent - программа для загрузки торрент-файлов.

Скачать byTorrent.exe (1,5 МБ)

Скачать byTorrent.zip (0,6 МБ)

Поддержи torrent.by
российских рублей
(300 российских рублей это 4$)

Обратная связь rss

End game ©