↑↓torrent.by
Поиск
Логин:  Регистрация
Пароль:

Голодные игры: Баллада о змеях и певчих птицах / The Hunger Games: The Ballad of Songbirds & Snakes (2023) BDRip-AVC от New-Team | D, P

download Скачать торрент-файл   magnet Магнитная ссылка Размер: 3.22 GB Добавлен: 2024-02-07 05:00
Пиры будут получены из сети DHT
Последний сидер был замечен 2024-02-10 22:17
Голодные игры: Баллада о змеях и певчих птицах / The Hunger Games: The Ballad of Songbirds & Snakes Год выпуска: 2023 Выпущено: США, Lions Gate Films Жанр: Фантастика, боевик, триллер, драма, приключения, военный Режиссер: Фрэнсис Лоуренс / Francis Lawrence В ролях: Том Блит, Рэйчел Зеглер, Питер Динклэйдж, Хантер Шафер, Джош Андрес Ривера, Джейсон Шварцман, Виола Дэвис, Фионнула Флэнаган, Берн Горман, Эшли Ляо О фильме: До того как стать деспотичным президентом Панэма, молодой Кориолан Сноу был последней надеждой своего увядающего рода — некогда великой династии, впавшей в немилость послевоенного Капитолия. Накануне десятых ежегодных Голодных игр Сноу назначают наставником Люси Грей Бэйрд — трибута дистрикта 12. Постепенно девушка привлекает все больше внимание Панэма, становясь фавориткой грядущего соревнования. Готовый на всё, чтобы вернуть своей семье былое величие, Сноу решает обратить ситуацию с Люси в свою пользу. Начинается гонка со временем, которая покажет, кто певчая птица, а кто — змея. Продолжительность: 02:37:10 Перевод (ы): 1: Профессиональный (полное дублирование) | Мосфильм-Мастер 2: Профессиональный (многоголосый, закадровый) | TVShows Субтитры: Русские (forced) английские. Раздача от: Автор релиза: JNS82. Формат: MKV Качество: BDRip-AVC Видео: MPEG-4 AVC, 2100 Кбит/с, 1024x428 Аудио #1: AC3, 6 ch, 448 Кбит/с | RUS | Аудио #2: AC3, 6 ch, 384 Кбит/с | RUS |
[+] MediaInfoОбщее Уникальный идентификатор : 38200075770339086120129302893604333831 (0x1CBD1125A09127E1B166EAA9F5576907) Полное имя : D:TorrentsThe.Hunger.Games.The.Ballad.of.Songbirds.and.Snakes.2023.BDRip-AVC_от New-Team_JNS82.mkv Формат : Matroska Версия формата : Version 4 Размер файла : 3,22 Гбайт Продолжительность : 2 ч. 37 м. Общий поток : 2 929 Кбит/сек Название фильма : The.Hunger.Games.The.Ballad.of.Songbirds.and.Snakes.2023.BDRip-AVC_от New-Team_JNS82 Дата кодирования : UTC 2024-02-06 12:49:18 Программа кодирования : mkvmerge v79.0 ('Funeral Pyres') 64-bit Библиотека кодирования : libebml v1.4.4 + libmatroska v1.7.1 Видео Идентификатор : 1 Формат : AVC Формат/Информация : Advanced Video Codec Профиль формата : High@L4.1 Настройки формата : CABAC / 10 Ref Frames Параметр CABAC формата : Да Параметр RefFrames формата : 10 кадров Идентификатор кодека : V_MPEG4/ISO/AVC Продолжительность : 2 ч. 37 м. Битрейт : 2 100 Кбит/сек Ширина : 1 024 пикселя Высота : 428 пикселей Соотношение сторон : 2,40:1 Режим частоты кадров : Постоянный Частота кадров : 23,976 (24000/1001) кадра/сек Цветовое пространство : YUV Субдискретизация насыщенности : 4:2:0 Битовая глубина : 8 бит Тип развёртки : Прогрессивная Бит/(Пиксели*Кадры) : 0.200 Размер потока : 2,30 Гбайт (72%) Библиотека кодирования : x264 core 164 r3156+57M NewTeam t_mod_New Настройки программы : cabac=1 / ref=10 / deblock=1:-3:-3 / analyse=0x3:0x133 / me=umh / subme=10 / psy=1 / fade_compensate=0.00 / psy_rd=1.00:0.01 / mixed_ref=1 / me_range=32 / chroma_me=1 / trellis=2 / 8x8dct=1 / cqm=0 / deadzone=21,11 / fast_pskip=0 / chroma_qp_offset=-3 / threads=13 / lookahead_threads=3 / sliced_threads=0 / nr=0 / decimate=0 / interlaced=0 / bluray_compat=0 / constrained_intra=0 / fgo=0 / bframes=10 / b_pyramid=2 / b_adapt=2 / b_bias=0 / direct=3 / weightb=1 / open_gop=0 / weightp=2 / keyint=250 / keyint_min=23 / scenecut=40 / intra_refresh=0 / rc_lookahead=40 / rc=2pass / mbtree=0 / bitrate=2100 / ratetol=1.0 / qcomp=0.60 / qpmin=0:0:0 / qpmax=69:69:69 / qpstep=4 / cplxblur=20.0 / qblur=0.5 / vbv_maxrate=50000 / vbv_bufsize=62500 / nal_hrd=none / filler=0 / ip_ratio=1.40 / pb_ratio=1.30 / aq=1:1.00 / aq-sensitivity=10.00 / aq-factor=1.00:1.00:1.00 / aq2=0 / aq3=0 Язык : English Default : Да Forced : Нет Аудио #1 Идентификатор : 2 Формат : AC-3 Формат/Информация : Audio Coding 3 Коммерческое название : Dolby Digital Идентификатор кодека : A_AC3 Продолжительность : 2 ч. 37 м. Вид битрейта : Постоянный Битрейт : 448 Кбит/сек Каналы : 6 каналов Channel layout : L R C LFE Ls Rs Частота : 48,0 КГц Частота кадров : 31,250 кадров/сек (1536 SPF) Метод сжатия : С потерями Размер потока : 504 Мбайт (15%) Заголовок : DUB - Мосфильм-Мастер Язык : Russian Service kind : Complete Main Default : Да Forced : Нет Аудио #2 Идентификатор : 3 Формат : AC-3 Формат/Информация : Audio Coding 3 Коммерческое название : Dolby Digital Идентификатор кодека : A_AC3 Продолжительность : 2 ч. 37 м. Вид битрейта : Постоянный Битрейт : 384 Кбит/сек Каналы : 6 каналов Channel layout : L R C LFE Ls Rs Частота : 48,0 КГц Частота кадров : 31,250 кадров/сек (1536 SPF) Метод сжатия : С потерями Размер потока : 432 Мбайт (13%) Заголовок : MVO - TVShows Язык : Russian Service kind : Complete Main Default : Нет Forced : Нет Текст #1 Идентификатор : 4 Формат : UTF-8 Идентификатор кодека : S_TEXT/UTF8 Идентификатор кодека/Информация : UTF-8 Plain Text Продолжительность : 1 ч. 55 м. Битрейт : 8 бит/сек Count of elements : 136 Размер потока : 7,58 Кбайт (0%) Заголовок : Язык : Russian Default : Да Forced : Нет Текст #2 Идентификатор : 5 Формат : UTF-8 Идентификатор кодека : S_TEXT/UTF8 Идентификатор кодека/Информация : UTF-8 Plain Text Продолжительность : 2 ч. 26 м. Битрейт : 61 бит/сек Count of elements : 2269 Размер потока : 65,9 Кбайт (0%) Заголовок : Язык : English Default : Нет Forced : Нет Меню 00:00:00.000 : en:Chapter 01 00:12:36.506 : en:Chapter 02 00:24:22.586 : en:Chapter 03 00:34:06.002 : en:Chapter 04 00:46:53.936 : en:Chapter 05 00:56:09.741 : en:Chapter 06 01:08:28.438 : en:Chapter 07 01:19:22.424 : en:Chapter 08 01:26:41.113 : en:Chapter 09 01:33:59.509 : en:Chapter 10 01:40:45.706 : en:Chapter 11 01:47:35.658 : en:Chapter 12 01:54:55.680 : en:Chapter 13 02:05:09.544 : en:Chapter 14 02:13:03.392 : en:Chapter 15 02:19:05.796 : en:Chapter 16

Всего файлов в раздаче: 1 
The.Hunger.Games.The.Ballad.of.Songbirds.and.Snakes.2023.BDRip-AVC_от New-Team_JNS82.mkv3.22 GB

Похожие раздачи по запросу - Голодные
2024-02-15 magnet Голодные игры: Баллада о змеях и певчих птицах / The Hunger Games: The Ballad of Songbirds & Snakes (2023) BDRip 2160p | 4K | HDR | Dolby Vision Profile 8 | D, P, A 34.92 GB ↑ 1 ↓ 0
2024-02-12 magnet Голодные игры: Баллада о змеях и певчих птицах / The Hunger Games: The Ballad of Songbirds & Snakes (2023) BDRip 1080p | D, P, A 11.46 GB ↑ 0 ↓ 0
2024-02-12 magnet Голодные игры: Баллада о змеях и певчих птицах / The Hunger Games: The Ballad of Songbirds & Snakes (2023) BDRip-AVC от ExKinoRay | D 2.89 GB ↑ 0 ↓ 0
2024-02-09 magnet Голодные игры: Баллада о змеях и певчих птицах / Голодні ігри: Балада про співочих пташок і змій / The Hunger Games: The Ballad of Songbirds & Snakes (2023) BDRemux 1080p | D | UKR 30.12 GB ↑ 0 ↓ 0
2024-02-08 magnet Голодные игры: Баллада о змеях и певчих птицах / The Hunger Games: The Ballad of Songbirds & Snakes (2023) BDRip 1080p от Generalfilm | D 13.54 GB ↑ 0 ↓ 0
2024-02-08 magnet Голодные игры: Баллада о змеях и певчих птицах / The Hunger Games: The Ballad of Songbirds & Snakes (2023) HDRip-AVC от ExKinoRay | D 1.07 GB ↑ 0 ↓ 0
2024-02-07 magnet Голодные игры: Баллада о змеях и певчих птицах / The Hunger Games: The Ballad of Songbirds & Snakes (2023) UHD BDRemux 2160p от селезень | 4K | HDR | Dolby Vision | D 74.27 GB ↑ 0 ↓ 0

Комментарии


Зарегистрируйтесь чтобы добавить комментарий
Торрент клиент
byTorrent - программа для загрузки торрент-файлов.

Скачать byTorrent.exe (1,5 МБ)

Скачать byTorrent.zip (0,6 МБ)

Поддержи torrent.by
российских рублей
(300 российских рублей это 4$)

Обратная связь rss

End game ©