↑↓torrent.by
Поиск
Логин:  Регистрация
Пароль:

Превосходство Борна / The Bourne Supremacy (2004) WEB-DLRip-AVC | P | Open Matte

download Скачать торрент-файл   magnet Магнитная ссылка Размер: 2.18 GB Добавлен: 2024-02-07 05:00
Пиры будут получены из сети DHT
Последний сидер был замечен 2024-02-07 05:00
Информация о фильме Название: Превосходство Борна Оригинальное название: The Bourne Supremacy Год выхода: 2004 Жанр: боевик, триллер, детектив Режиссер: Пол Гринграсс В ролях: Мэтт Дэймон, Франка Потенте, Брайан Кокс, Джулия Стайлз, Карл Урбан, Гэбриел Манн, Джоан Аллен, Мартон Чокаш, Том Гэллоп, Джон Бедфорд Ллойд О фильме: Суперагент ЦРУ Джейсон Борн вновь оказывается подставленным и вынужден помимо возложенной на него задачи государственного значения спасать себя, а заодно и других небезразличных ему людей. В процессе выполнения миссии судьба заносит Борна в Россию, где его ждет множество характерных для страны, но непривычных западному человеку сюрпризов. Страна: США, Германия Продолжительность: 01:48:34 Перевод: Профессиональный (многоголосый, закадровый) Файл Формат: MKV Качество: WEB-DLRip-AVC Видео: AVC/H.264, 1024x576, 23,976 fps, ~2424 kbps Аудио AC3, 6 ch, 448 Kbps - MVO STAR RECORDS Субтитры: русские (форс)
[+] MediaInfoGeneral Unique ID : 125268441225824461747872465690640390602 (0x5E3DD2FF0E746C5AB4A8CEAE084219CA) Complete name : D:The Bourne Supremacy (2004) OM.mkv Format : Matroska Format version : Version 4 File size : 2.18 GiB Duration : 1 h 48 min Overall bit rate : 2 870 kb/s Movie name : Превосходство Борна Encoded date : UTC 2024-02-06 17:09:06 Writing application : mkvmerge v65.0.0.1 ('Too Much') 32-bit Writing library : libebml v1.4.2 + libmatroska v1.6.4 Video ID : 1 Format : AVC Format/Info : Advanced Video Codec Format profile : High@L4.1 Format settings : CABAC / 14 Ref Frames Format settings, CABAC : Yes Format settings, Reference : 14 frames Codec ID : V_MPEG4/ISO/AVC Duration : 1 h 48 min Bit rate : 2 424 kb/s Width : 1 024 pixels Height : 576 pixels Display aspect ratio : 16:9 Frame rate mode : Constant Frame rate : 23.976 (24000/1001) FPS Color space : YUV Chroma subsampling : 4:2:0 Bit depth : 8 bits Scan type : Progressive Bits/(Pixel*Frame) : 0.171 Stream size : 1.84 GiB (84%) Title : RIP_BY_-=DoMiNo=- Writing library : x264 core 155 r2901M 7d0ff22 Encoding settings : cabac=1 / ref=14 / deblock=1:-3:-3 / analyse=0x3:0x133 / me=umh / subme=11 / psy=1 / psy_rd=1.05:0.15 / mixed_ref=1 / me_range=32 / chroma_me=1 / trellis=2 / 8x8dct=1 / cqm=0 / deadzone=21,11 / fast_pskip=0 / chroma_qp_offset=-3 / threads=6 / lookahead_threads=1 / sliced_threads=0 / nr=0 / decimate=1 / interlaced=0 / bluray_compat=0 / constrained_intra=0 / bframes=12 / b_pyramid=2 / b_adapt=2 / b_bias=0 / direct=3 / weightb=1 / open_gop=0 / weightp=2 / keyint=240 / keyint_min=24 / scenecut=40 / intra_refresh=0 / rc=2pass / mbtree=0 / bitrate=2424 / ratetol=1.0 / qcomp=0.70 / qpmin=0 / qpmax=69 / qpstep=4 / cplxblur=20.0 / qblur=0.5 / ip_ratio=1.40 / pb_ratio=1.30 / aq=3:0.95 Language : English Default : Yes Forced : No Color range : Limited Color primaries : BT.709 Transfer characteristics : BT.709 Matrix coefficients : BT.709 Audio ID : 2 Format : AC-3 Format/Info : Audio Coding 3 Commercial name : Dolby Digital Codec ID : A_AC3 Duration : 1 h 48 min Bit rate mode : Constant Bit rate : 448 kb/s Channel(s) : 6 channels Channel layout : L R C LFE Ls Rs Sampling rate : 48.0 kHz Frame rate : 31.250 FPS (1536 SPF) Compression mode : Lossy Stream size : 348 MiB (16%) Language : Russian Service kind : Complete Main Default : Yes Forced : No Text ID : 3 Format : UTF-8 Codec ID : S_TEXT/UTF8 Codec ID/Info : UTF-8 Plain Text Duration : 1 h 38 min Bit rate : 2 b/s Count of elements : 44 Stream size : 2.05 KiB (0%) Title : Надписи и пр. Language : Russian Default : Yes Forced : No Menu 00:00:00.000 : :Глава 1 00:09:06.671 : :Глава 2 00:18:42.997 : :Глава 3 00:28:24.620 : :Глава 4 00:37:31.541 : :Глава 5 00:47:05.489 : :Глава 6 00:56:31.346 : :Глава 7 01:05:50.530 : :Глава 8 01:15:36.240 : :Глава 9 01:24:54.297 : :Глава 10 01:34:38.172 : :Глава 11 01:42:29.310 : :Глава 12
[+] Примечание:перевод из редкого издания DVD, озвучивают 3 голоса
[+] Скриншоты

Всего файлов в раздаче: 1 
The Bourne Supremacy (2004) OM.mkv2.18 GB

Похожие раздачи по запросу - Превосходство
2023-09-16 magnet Превосходство / Transcendence (2014) BDRip-AVC от HELLYWOOD | D 1.46 GB ↑ 0 ↓ 0

Комментарии


Зарегистрируйтесь чтобы добавить комментарий
Торрент клиент
byTorrent - программа для загрузки торрент-файлов.

Скачать byTorrent.exe (1,5 МБ)

Скачать byTorrent.zip (0,6 МБ)

Поддержи torrent.by
российских рублей
(300 российских рублей это 4$)

Обратная связь rss

End game ©