↑↓torrent.by
Поиск
Логин:  Регистрация
Пароль:

Доктор Чхон и потерянный талисман / Потерянный талисман / Dr. Cheon and Lost Talisman (2023) WEB-DLRip от JNS82 | L | Head Pack Films

download Скачать торрент-файл   magnet Магнитная ссылка Размер: 1.46 GB Добавлен: 2024-02-07 05:00
Пиры будут получены из сети DHT
Последний сидер был замечен 2024-02-07 16:39
Доктор Чхон и потерянный талисман / Потерянный талисман / Dr. Cheon and Lost Talisman Год выпуска: 2023 Выпущено: Южная Корея / CJ Entertainment, Filmmaker R&K Жанр: фэнтези, боевик, комедия Режиссер: Ким Сон-щик / Kim Seong-shik В ролях: Дон Вон Кан, Джун Хо Хо, Эсом, Дон Хви Ли, Чжон Су Ким, Чон Ын Ли, Мён Хун Пак, И Хён Чо (I), Со И Пак, Чон Мин Пак (II), Бён Хи Юн, Кён Хе Пак, Джи Су Ким (I), Бо Би Чу О фильме: Внук великого шамана Доктор Чхон ведёт на YouTube популярный канал. Считая, что скорее имеет дело с расстройствами психики, чем с потусторонним, он вместе с помощником потакает своим клиентам и устраивает постановочные обряды изгнания злых духов. Однажды, польстившись на солидное вознаграждение, напарники берутся провести экзорцизм девочки, которую, по словам её старшей сестры, захватил призрак, и в этот раз доктору Чхону придётся столкнуться с настоящим демоном. Продолжительность: 01:38:08 Перевод: Любительский (многоголосый, закадровый) | Head Pack Films Субтитры: Нет. Автор релиза: JNS82. Формат: AVI Качество: WEB-DLRip Видео: 720x304 (2.35:1), 24,000 fps, XviD MPEG-4 ~ 1737 kbps avg, 0.331 bit/pixel, build 74 Аудио: 48 kHz, AC3 Dolby Digital, 2/0 (L,R) ch, ~ 192 kbps | RUS | Аудио: 48 kHz, AC3 Dolby Digital, 2/0 (L,R) ch, ~ 192 kbps | KOR |
[+] MediaInfoОбщее Полное имя : D:TorrentsDr. Cheon.and.the.Lost.Talisman.2023.WEB-DLRip_by_JNS82.avi Формат : AVI Формат/Информация : Audio Video Interleave Размер файла : 1,46 Гбайт Продолжительность : 1 ч. 38 м. Общий поток : 2 135 Кбит/сек Программа кодирования : VirtualDubMod 1.5.10.2 (build 2540/release) Библиотека кодирования : VirtualDubMod build 2540/release Видео Идентификатор : 0 Формат : MPEG-4 Visual Профиль формата : Advanced Simple@L5 Настройки формата : BVOP1 / Custom Matrix Параметр BVOP формата : 1 Параметр QPel формата : Нет Параметр GMC формата : Без точки перехода Параметр матрицы формата : Выборочная Идентификатор кодека : XVID Идентификатор кодека/Подсказка : XviD Продолжительность : 1 ч. 38 м. Битрейт : 1 737 Кбит/сек Ширина : 720 пикселей Высота : 304 пикселя Соотношение сторон : 2,35:1 Частота кадров : 24,000 кадра/сек Цветовое пространство : YUV Субдискретизация насыщенности : 4:2:0 Битовая глубина : 8 бит Тип развёртки : Прогрессивная Метод сжатия : С потерями Бит/(Пиксели*Кадры) : 0.331 Размер потока : 1,19 Гбайт (81%) Библиотека кодирования : XviD 74 Аудио #1 Идентификатор : 1 Формат : AC-3 Формат/Информация : Audio Coding 3 Коммерческое название : Dolby Digital Идентификатор кодека : 2000 Продолжительность : 1 ч. 38 м. Вид битрейта : Постоянный Битрейт : 192 Кбит/сек Каналы : 2 канала Channel layout : L R Частота : 48,0 КГц Частота кадров : 31,250 кадров/сек (1536 SPF) Метод сжатия : С потерями Размер потока : 135 Мбайт (9%) Выравнивание : Разделение по промежуткам Продолжительность промежутка : 42 мс. (1,00 видеокадр) Время предзагрузки промежутка : 500 мс. Service kind : Complete Main Аудио #2 Идентификатор : 2 Формат : AC-3 Формат/Информация : Audio Coding 3 Коммерческое название : Dolby Digital Идентификатор кодека : 2000 Продолжительность : 1 ч. 38 м. Вид битрейта : Постоянный Битрейт : 192 Кбит/сек Каналы : 2 канала Channel layout : L R Частота : 48,0 КГц Частота кадров : 31,250 кадров/сек (1536 SPF) Метод сжатия : С потерями Размер потока : 135 Мбайт (9%) Выравнивание : Разделение по промежуткам Продолжительность промежутка : 42 мс. (1,00 видеокадр) Время предзагрузки промежутка : 500 мс. Service kind : Complete Main

Всего файлов в раздаче: 1 
Dr. Cheon.and.the.Lost.Talisman.2023.WEB-DLRip_by_JNS82.avi1.46 GB

Похожие раздачи по запросу - Доктор
2024-02-07 magnet Доктор Чхон и потерянный талисман / Потерянный талисман / Dr. Cheon and Lost Talisman (2023) WEB-DL 1080p | L 4.51 GB ↑ 0 ↓ 0
2024-01-27 magnet Доктор Иванов [S01-06] (2021-2023) WEB-DLRip от Generalfilm | КПК 3.94 GB ↑ 1 ↓ 0
2024-01-26 magnet Народный доктор №1 [январь] (2024) PDF 22.23 MB ↑ 0 ↓ 0
2024-01-25 magnet Доктор Преображенский [S02] (2023) WEBRip от Generalfilm | КПК 1.46 GB ↑ 0 ↓ 0
2024-01-20 magnet Доктор Преображенский [S02] (2023) WEBRip 1080p 1К10.59 GB ↑ 0 ↓ 0
2024-01-20 magnet Доктор Преображенский [S02] (2023) WEBRip-AVC от Files-х 4.91 GB ↑ 0 ↓ 0
2024-01-20 magnet Доктор Преображенский [S02] (2023) WEBRip 5.07 GB ↑ 0 ↓ 0

Комментарии


Зарегистрируйтесь чтобы добавить комментарий
Торрент клиент
byTorrent - программа для загрузки торрент-файлов.

Скачать byTorrent.exe (1,5 МБ)

Скачать byTorrent.zip (0,6 МБ)

Поддержи torrent.by
российских рублей
(300 российских рублей это 4$)

Обратная связь rss

End game ©