↑↓torrent.by
Поиск
Логин:  Регистрация
Пароль:

Тебя здесь не было / Никогда здесь не была / Never Here (2017) WEB-DL 1080p | P

download Скачать торрент-файл   magnet Магнитная ссылка Размер: 8.51 GB Добавлен: 2024-02-07 11:00
Пиры будут получены из сети DHT
Последний сидер был замечен 2024-02-08 19:32
Информация о фильме Название: Тебя здесь не было / Никогда здесь не была Оригинальное название: Never Here Год выхода: 2017 Жанр: Триллер, драма, детектив Режиссер: Камиль Томан В ролях: Мирей Инос, Сэм Шепард, Горан Вишнич, Винсент Пьяцца, Нина Арианда, Ана Ногейра, Грег Эйнсуорт, Десмин Боргес О фильме: Миранда – концептуальная художница. Вдохновением для её новой работы послужил случайно найденный телефон. Женщина извлекла из него всю информацию, сохранив лишь анонимность переписок и веб-поиска. Используя данные GPS она посетила и сфотографировала места, где бывал владелец потерянного телефона. Но однажды Миранда начинает понимать, что кто-то наблюдает за ней. Границы между реальным и воображаемым, преступлением и искусством, наблюдателем и наблюдаемым стираются. Страна: США Студия: Before The Door Pictures, Wonderbar Productions Продолжительность: 01:50:05 Перевод: Профессиональный (многоголосый, закадровый) | НТК Файл Формат: MKV Качество: WEB-DL 1080p Видео: MPEG-4 AVC, 1920x800 (2.40:1), 23.976 fps, 10.2 Mbps Аудио 1: Russian: 48.0 KHz, AC3, 2.0 ch, 192 Kbps | MVO, НТК Аудио 2: English: 48.0 KHz, E-AC3, 6 ch, 640 Kbps | Original Субтитры: Английские (Full, SDH), португальские, датские и др.
[+] Скриншоты
[+] Инфо-файлGeneral Unique ID : 224250530361293907104723136731200534765 (0xA8B514C6089C6CB19CA604A741BEB8ED) Complete name : Never.Here.2017.WEB-DL.1080p.mkv Format : Matroska Format version : Version 4 File size : 8.51 GiB Duration : 1 h 50 min Overall bit rate mode : Variable Overall bit rate : 11.1 Mb/s Movie name : Never.Here.2017.WEB-DL.1080p_AllFilms_teko Encoded date : UTC 2024-01-01 16:41:42 Writing application : mkvmerge v9.5.0 ('Quiet Fire') 64bit Writing library : libebml v1.3.4 + libmatroska v1.4.5 Cover : Yes Attachments : Cover.jpg / Never.Here.2017.Afisha.jpg / Never.Here.2017.Poster.jpg Video ID : 1 Format : AVC Format/Info : Advanced Video Codec Format profile : High@L4 Format settings : CABAC / 4 Ref Frames Format settings, CABAC : Yes Format settings, Reference frames : 4 frames Codec ID : V_MPEG4/ISO/AVC Duration : 1 h 50 min Bit rate mode : Variable Bit rate : 10.2 Mb/s Maximum bit rate : 15.0 Mb/s Width : 1 920 pixels Height : 800 pixels Display aspect ratio : 2.40:1 Frame rate mode : Constant Frame rate : 23.976 (24000/1001) FPS Color space : YUV Chroma subsampling : 4:2:0 Bit depth : 8 bits Scan type : Progressive Bits/(Pixel*Frame) : 0.278 Stream size : 7.86 GiB (92%) Title : Never.Here.2017.WEB-DL.1080p Language : English Default : Yes Forced : No Color range : Limited Color primaries : BT.709 Transfer characteristics : BT.709 Matrix coefficients : BT.709 Audio #1 ID : 2 Format : AC-3 Format/Info : Audio Coding 3 Commercial name : Dolby Digital Codec ID : A_AC3 Duration : 1 h 50 min Bit rate mode : Constant Bit rate : 192 kb/s Channel(s) : 2 channels Channel layout : L R Sampling rate : 48.0 kHz Frame rate : 31.250 FPS (1536 SPF) Compression mode : Lossy Stream size : 151 MiB (2%) Title : MVO НТК (Независимый Телевизионный Канал) Language : Russian Service kind : Complete Main Default : Yes Forced : No Audio #2 ID : 3 Format : E-AC-3 Format/Info : Enhanced AC-3 Commercial name : Dolby Digital Plus Codec ID : A_EAC3 Duration : 1 h 50 min Bit rate mode : Constant Bit rate : 640 kb/s Channel(s) : 6 channels Channel layout : L R C LFE Ls Rs Sampling rate : 48.0 kHz Frame rate : 31.250 FPS (1536 SPF) Compression mode : Lossy Stream size : 504 MiB (6%) Title : Original Language : English Service kind : Complete Main Default : No Forced : No Text #1 ID : 4 Format : UTF-8 Codec ID : S_TEXT/UTF8 Codec ID/Info : UTF-8 Plain Text Duration : 1 h 48 min Bit rate : 35 b/s Count of elements : 991 Stream size : 28.4 KiB (0%) Title : English Full Language : English Default : No Forced : No Text #2 ID : 5 Format : UTF-8 Codec ID : S_TEXT/UTF8 Codec ID/Info : UTF-8 Plain Text Duration : 1 h 48 min Bit rate : 38 b/s Count of elements : 1064 Stream size : 30.5 KiB (0%) Title : English SDH Language : English Default : No Forced : No Text #3 ID : 6 Format : UTF-8 Codec ID : S_TEXT/UTF8 Codec ID/Info : UTF-8 Plain Text Duration : 1 h 49 min Bit rate : 46 b/s Count of elements : 976 Stream size : 37.2 KiB (0%) Title : Arabic Language : Arabic Default : No Forced : No Text #4 ID : 7 Format : UTF-8 Codec ID : S_TEXT/UTF8 Codec ID/Info : UTF-8 Plain Text Duration : 1 h 48 min Bit rate : 35 b/s Count of elements : 970 Stream size : 28.6 KiB (0%) Title : Portuguese Brazilian Language : Portuguese Default : No Forced : No Text #5 ID : 8 Format : UTF-8 Codec ID : S_TEXT/UTF8 Codec ID/Info : UTF-8 Plain Text Duration : 1 h 44 min Bit rate : 32 b/s Count of elements : 678 Stream size : 24.7 KiB (0%) Title : Danish Language : Danish Default : No Forced : No Text #6 ID : 9 Format : UTF-8 Codec ID : S_TEXT/UTF8 Codec ID/Info : UTF-8 Plain Text Duration : 1 h 48 min Bit rate : 36 b/s Count of elements : 904 Stream size : 28.7 KiB (0%) Title : Indonesian Language : Indonesian Default : No Forced : No Text #7 ID : 10 Format : UTF-8 Codec ID : S_TEXT/UTF8 Codec ID/Info : UTF-8 Plain Text Duration : 1 h 44 min Bit rate : 33 b/s Count of elements : 699 Stream size : 25.5 KiB (0%) Title : Norwegian Language : Norwegian Bokmal Default : No Forced : No Text #8 ID : 11 Format : UTF-8 Codec ID : S_TEXT/UTF8 Codec ID/Info : UTF-8 Plain Text Duration : 1 h 43 min Bit rate : 36 b/s Count of elements : 990 Stream size : 27.4 KiB (0%) Title : Serbian Language : Serbian Default : No Forced : No Text #9 ID : 12 Format : UTF-8 Codec ID : S_TEXT/UTF8 Codec ID/Info : UTF-8 Plain Text Duration : 1 h 48 min Bit rate : 25 b/s Count of elements : 737 Stream size : 20.6 KiB (0%) Title : Slovenian Language : Slovenian Default : No Forced : No Text #10 ID : 13 Format : UTF-8 Codec ID : S_TEXT/UTF8 Codec ID/Info : UTF-8 Plain Text Duration : 1 h 49 min Bit rate : 56 b/s Count of elements : 999 Stream size : 45.2 KiB (0%) Title : Persian Language : Persian Default : No Forced : No Text #11 ID : 14 Format : UTF-8 Codec ID : S_TEXT/UTF8 Codec ID/Info : UTF-8 Plain Text Duration : 1 h 44 min Bit rate : 32 b/s Count of elements : 678 Stream size : 24.6 KiB (0%) Title : Finnish Language : Finnish Default : No Forced : No Text #12 ID : 15 Format : UTF-8 Codec ID : S_TEXT/UTF8 Codec ID/Info : UTF-8 Plain Text Duration : 1 h 43 min Bit rate : 36 b/s Count of elements : 981 Stream size : 27.4 KiB (0%) Title : Croatian Language : Croatian Default : No Forced : No Text #13 ID : 16 Format : UTF-8 Codec ID : S_TEXT/UTF8 Codec ID/Info : UTF-8 Plain Text Duration : 1 h 44 min Bit rate : 34 b/s Count of elements : 678 Stream size : 26.6 KiB (0%) Title : Swedish Language : Swedish Default : No Forced : No

Всего файлов в раздаче: 1 
Never.Here.2017.WEB-DL.1080p.mkv8.51 GB

Похожие раздачи по запросу - Тебя
2024-02-10 magnet Кто угодно, кроме тебя / Anyone But You (2023) WEB-DLRip-AVC | КПК | P 493.50 MB ↑ 1 ↓ 0
2024-02-08 magnet Кто угодно, кроме тебя / Anyone But You (2023) WEB-DLRip 720p от DoMiNo & селезень | P 2.68 GB ↑ 0 ↓ 0
2024-02-08 magnet Кто угодно, кроме тебя / Anyone But You (2023) WEB-DLRip от New-Team | P 1.46 GB ↑ 2 ↓ 0
2024-02-08 magnet Кто угодно, кроме тебя / Anyone But You (2023) WEB-DL 1080p | P 4.88 GB ↑ 0 ↓ 0
2024-02-06 magnet Туве Альстердаль - Тебя никто не найдет (2024) MP3 625.58 MB ↑ 0 ↓ 0
2024-01-07 magnet Влада Вершинина - Нет без тебя рассветов (2016) MP3 109.79 MB ↑ 0 ↓ 0
2023-11-27 magnet Если бы я тебя любил... (2010) HDTVRip 1К1.38 GB ↑ 0 ↓ 0

Комментарии


Зарегистрируйтесь чтобы добавить комментарий
Торрент клиент
byTorrent - программа для загрузки торрент-файлов.

Скачать byTorrent.exe (1,5 МБ)

Скачать byTorrent.zip (0,6 МБ)

Поддержи torrent.by
российских рублей
(300 российских рублей это 4$)

Обратная связь rss

End game ©