↑↓torrent.by
Поиск
Логин:  Регистрация
Пароль:

Десятилетний Том / Ten Year Old Tom [S01] (2021) WEBRip 1080p | Omskbird

download Скачать торрент-файл   magnet Магнитная ссылка Размер: 15.21 GB Добавлен: 2024-02-07 17:00
Пиры будут получены из сети DHT
Последний сидер был замечен 2024-02-07 19:44
Информация о сериале: Название: Десятилетний Том Оригинальное название: Ten Year Old Tom Год выхода: 2021 Жанр: мультфильм, комедия Режиссер: Стив Дилдариан В ролях: Стив Дилдариан, Байрон Бауэрс, Эди Паттерсон, Тодд Гласс, Бен Роджерс, Эрик Гриффин, Гиллиан Джейкобс, Джон Малкович, Тейлор Мисяк, Мэтт Джонсон и др. Описание сериала: Взрослые, с которыми приходится сталкиваться десятилетнему Тому, совершенно не умеют подавать хороший пример ребёнку. Каждый день мальчик подвергается дурному влиянию то со стороны своих непутёвых родителей, то со стороны посторонних людей: водителей автобусов, которые приторговывают наркотиками, или учителей, которые пытаются флиртовать с матерью Тома. Том делает всё возможное, чтобы избежать самых отвратительных явлений мира. Страна: США Продолжительность: ~ 20 x ~ 00:13:00 Перевод: Любительский (многоголосый закадровый) | OMSKBIRD Файл Качество: WEBRip (1080p) Видео: MPEG-4 AVC, ~ 8250 Кбит/с, 1920x1080 Аудио: Русский (AC3, 6 ch, 384 Кбит/с), Английский (AC3, 6 ch, 384 Кбит/с) Субтитры: Русские (форсированные), Английские / Srt Семпл Релиз содержит рекламные аудио вставки. ПРИСУТСТВУЕТ НЕЦЕНЗУРНАЯ ЛЕКСИКА!
[+] Скриншоты:
[+] Mediainfo:General Unique ID : 80555441019171551551277702601171011897 (0x3C9A69E1F73D9DB189752E10D59C0939) Complete name : D:DocsVideoArchiveTen.Year.Old.Tom.S01.1080p.WEBRip.OmskbirdTen.Year.Old.Tom.S01E01.1080p.WEBRip.Omskbird.mkv Format : Matroska Format version : Version 4 File size : 844 MiB Duration : 13 min 9 s Overall bit rate mode : Variable Overall bit rate : 8 974 kb/s Frame rate : 23.976 FPS Encoded date : 2024-01-27 12:05:11 UTC Writing application : mkvmerge v78.0 ('Running') 64-bit Writing library : libebml v1.4.4 + libmatroska v1.7.1 Video ID : 1 Format : AVC Format/Info : Advanced Video Codec Format profile : High@L4 Format settings : CABAC / 4 Ref Frames Format settings, CABAC : Yes Format settings, Reference frames : 4 frames Codec ID : V_MPEG4/ISO/AVC Duration : 13 min 9 s Bit rate mode : Variable Bit rate : 8 250 kb/s Maximum bit rate : 12.4 Mb/s Width : 1 920 pixels Height : 1 080 pixels Display aspect ratio : 16:9 Frame rate mode : Constant Frame rate : 23.976 (24000/1001) FPS Color space : YUV Chroma subsampling : 4:2:0 Bit depth : 8 bits Scan type : Progressive Bits/(Pixel*Frame) : 0.166 Stream size : 772 MiB (91%) Writing library : x264 core 157 r2965 861cec4 Encoding settings : cabac=1 / ref=4 / deblock=1:0:0 / analyse=0x3:0x113 / me=hex / subme=7 / psy=1 / psy_rd=1.00:0.00 / mixed_ref=1 / me_range=16 / chroma_me=1 / trellis=1 / 8x8dct=1 / cqm=0 / deadzone=21,11 / fast_pskip=1 / chroma_qp_offset=-2 / threads=34 / lookahead_threads=5 / sliced_threads=0 / nr=0 / decimate=1 / interlaced=0 / bluray_compat=0 / constrained_intra=0 / bframes=3 / b_pyramid=2 / b_adapt=1 / b_bias=0 / direct=1 / weightb=1 / open_gop=0 / weightp=2 / keyint=96 / keyint_min=96 / scenecut=40 / intra_refresh=0 / rc_lookahead=40 / rc=2pass / mbtree=1 / bitrate=8250 / ratetol=1.0 / qcomp=0.60 / qpmin=0 / qpmax=69 / qpstep=4 / cplxblur=20.0 / qblur=0.5 / vbv_maxrate=12375 / vbv_bufsize=6187 / nal_hrd=vbr / filler=0 / ip_ratio=1.40 / aq=1:1.00 Language : English Default : Yes Forced : No Color range : Limited Color primaries : BT.709 Transfer characteristics : BT.709 Matrix coefficients : BT.709 Audio #1 ID : 2 Format : AC-3 Format/Info : Audio Coding 3 Commercial name : Dolby Digital Codec ID : A_AC3 Duration : 13 min 9 s Bit rate mode : Constant Bit rate : 384 kb/s Channel(s) : 6 channels Channel layout : L R C LFE Ls Rs Sampling rate : 48.0 kHz Frame rate : 31.250 FPS (1536 SPF) Compression mode : Lossy Stream size : 36.1 MiB (4%) Title : MVO, OMSKBIRD Language : Russian Service kind : Complete Main Default : Yes Forced : No Audio #2 ID : 3 Format : AC-3 Format/Info : Audio Coding 3 Commercial name : Dolby Digital Codec ID : A_AC3 Duration : 13 min 9 s Bit rate mode : Constant Bit rate : 384 kb/s Channel(s) : 6 channels Channel layout : L R C LFE Ls Rs Sampling rate : 48.0 kHz Frame rate : 31.250 FPS (1536 SPF) Compression mode : Lossy Stream size : 36.1 MiB (4%) Title : Original Language : English (US) Service kind : Complete Main Default : No Forced : No Text #1 ID : 4 Format : UTF-8 Codec ID : S_TEXT/UTF8 Codec ID/Info : UTF-8 Plain Text Duration : 2 s 0 ms Bit rate : 120 b/s Frame rate : 0.500 FPS Count of elements : 1 Stream size : 30.0 Bytes (0%) Title : Russian, Forced Language : Russian Default : Yes Forced : No Text #2 ID : 5 Format : UTF-8 Codec ID : S_TEXT/UTF8 Codec ID/Info : UTF-8 Plain Text Duration : 12 min 58 s Bit rate : 141 b/s Frame rate : 0.514 FPS Count of elements : 400 Stream size : 13.4 KiB (0%) Title : English Language : English (US) Default : No Forced : No

Всего файлов в раздаче: 20 
Ten.Year.Old.Tom.S01E01.1080p.WEBRip.Omskbird.mkv844.26 MB
Ten.Year.Old.Tom.S01E02.1080p.WEBRip.Omskbird.mkv836.08 MB
Ten.Year.Old.Tom.S01E03.1080p.WEBRip.Omskbird.mkv828.35 MB
Ten.Year.Old.Tom.S01E04.1080p.WEBRip.Omskbird.mkv792.09 MB
Ten.Year.Old.Tom.S01E05.1080p.WEBRip.Omskbird.mkv699.64 MB
Ten.Year.Old.Tom.S01E06.1080p.WEBRip.Omskbird.mkv852.95 MB
Ten.Year.Old.Tom.S01E07.1080p.WEBRip.Omskbird.mkv774.33 MB
Ten.Year.Old.Tom.S01E08.1080p.WEBRip.Omskbird.mkv811.25 MB
Ten.Year.Old.Tom.S01E09.1080p.WEBRip.Omskbird.mkv766.47 MB
Ten.Year.Old.Tom.S01E10.1080p.WEBRip.Omskbird.mkv838.86 MB
Показать все файлы

Комментарии


Зарегистрируйтесь чтобы добавить комментарий
Торрент клиент
byTorrent - программа для загрузки торрент-файлов.

Скачать byTorrent.exe (1,5 МБ)

Скачать byTorrent.zip (0,6 МБ)

Поддержи torrent.by
российских рублей
(300 российских рублей это 4$)

Обратная связь rss

End game ©