↑↓torrent.by
Поиск
Логин:  Регистрация
Пароль:

Дженнифер 8 / Jennifer Eight (1992) BDRip-AVC от Rulya74

download Скачать торрент-файл   magnet Магнитная ссылка Размер: 2.05 GB Добавлен: 2024-02-07 17:00
Пиры будут получены из сети DHT
Последний сидер был замечен 2024-02-08 19:13
Дженнифер 8 / Jennifer Eight (1992) BDRip-AVC Информация о фильме Название: Дженнифер 8 Оригинальное название: Jennifer Eight Год выхода: 1992 Жанр: триллер, драма, криминал, детектив Режиссер: Брюс Робинсон В ролях: Энди Гарсиа, Ума Турман, Лэнс Хенриксен, Кэти Бейкер, Грэм Беккел, Кевин Конуэй, Джон Малкович, Ленни Фон Долен, Пол Бэйтс, Перри Лэнг, Николас Лав, Брайан Ларкин, Майкл О'Нейлл, Роберт Гантон... О фильме: У детектива Джона Берлина, идущего по следу серийного убийцы, нет ни улик, ни подозреваемых. И нет алиби. Уставший от напряженного ритма «каменных джунглей», приходящий в себя после неудачного брака, только излечившийся от алкоголизма лос-анжелесский полицейский Джон Берлин решает сменить обстановку. Он принимает приглашение своего друга и коллеги и приезжает в маленький городок на севере Калифорнии. Но вместо желанной тихой сельской жизни Джону приходится включиться в поиски серийного убийцы, чьими жертвами стали семь молоденьких слепых девушек. Страна: США Продолжительность: 02:05:20 Перевод: Профессиональный (многоголосый закадровый) СТС, Авторский одноголосый (А. Гаврилов), Оригинал (Английский) Файл Кодек: h.264 Качество: BDRip-AVC Видео: 960x540 (16:9), 23,976 fps, 1574 kbps, 0.127 bit/pixel Аудио #1: 48 kHz, AC3 Dolby Digital, 2 ch, ~192.00 kbps | Многоголосый Аудио #2: 48 kHz, AC3 Dolby Digital, 6 ch, ~384.00 kbps | Авторский Аудио #3: 48 kHz, AC3 Dolby Digital, 2 ch, ~192.00 kbps | Оригинал Субтитры: английские
[+] MediaInfoОбщее Уникальный идентификатор : 190277517829600832965567276716361042413 (0x8F261DEF550EDCAB9FC071666400C9ED) Полное имя : D:Jennifer Eight.1998.BDRip-AVC.mkv Формат : Matroska Версия формата : Version 4 / Version 2 Размер файла : 2,05 Гбайт Продолжительность : 2 ч. 5 м. Общий поток : 2344 Кбит/сек Название фильма : Дженнифер 8 / Jennifer Eight (1992) BDRip-AVC rip by Rulya74 Дата кодирования : UTC 2014-11-15 06:24:54 Программа кодирования : mkvmerge v7.3.0 ('Nouages') 64bit built on Oct 22 2014 18:53:34 Библиотека кодирования : libebml v1.3.0 + libmatroska v1.4.1 DURATION : 01:58:12.124000000 NUMBER_OF_FRAMES : 1099 NUMBER_OF_BYTES : 46038 _STATISTICS_WRITING_APP : mkvmerge v7.3.0 ('Nouages') 64bit built on Oct 22 2014 18:53:34 _STATISTICS_WRITING_DATE_UTC : 2014-11-15 06:24:54 _STATISTICS_TAGS : BPS DURATION NUMBER_OF_FRAMES NUMBER_OF_BYTES Видео Идентификатор : 1 Формат : AVC Формат/Информация : Advanced Video Codec Профиль формата : High@L4.1 Параметр CABAC формата : Да Параметр ReFrames формата : 11 кадров Идентификатор кодека : V_MPEG4/ISO/AVC Продолжительность : 2 ч. 5 м. Битрейт : 1574 Кбит/сек Ширина : 960 пикселей Высота : 540 пикселей Соотношение сторон : 16:9 Режим частоты кадров : Постоянный Частота кадров : 23,976 кадра/сек Цветовое пространство : YUV Субдискретизация насыщенности : 4:2:0 Битовая глубина : 8 бит Тип развёртки : Прогрессивная Бит/(Пиксели*Кадры) : 0.127 Размер потока : 1,34 Гбайт (65%) Библиотека кодирования : x264 core 142 r2431 ac76440 Настройки программы : cabac=1 / ref=11 / deblock=1:-3:-3 / analyse=0x3:0x113 / me=umh / subme=11 / psy=1 / psy_rd=1.00:0.00 / mixed_ref=1 / me_range=48 / chroma_me=1 / trellis=2 / 8x8dct=1 / cqm=0 / deadzone=21,11 / fast_pskip=0 / chroma_qp_offset=-2 / threads=4 / lookahead_threads=1 / sliced_threads=0 / nr=0 / decimate=1 / interlaced=0 / bluray_compat=0 / constrained_intra=0 / bframes=6 / b_pyramid=2 / b_adapt=1 / b_bias=0 / direct=3 / weightb=1 / open_gop=0 / weightp=2 / keyint=240 / keyint_min=23 / scenecut=40 / intra_refresh=0 / rc_lookahead=40 / rc=2pass / mbtree=1 / bitrate=1574 / ratetol=1.0 / qcomp=0.60 / qpmin=0 / qpmax=69 / qpstep=4 / cplxblur=20.0 / qblur=0.5 / vbv_maxrate=62500 / vbv_bufsize=78125 / nal_hrd=none / filler=0 / ip_ratio=1.40 / aq=1:1.00 Default : Да Forced : Нет Аудио #1 Идентификатор : 2 Формат : AC-3 Формат/Информация : Audio Coding 3 Расширение режима : CM (complete main) Параметр Endianness формата : Big Идентификатор кодека : A_AC3 Продолжительность : 2 ч. 5 м. Вид битрейта : Постоянный Битрейт : 192 Кбит/сек Каналы : 2 канала Расположение каналов : Front: L R Частота : 48,0 КГц Битовая глубина : 16 бит Метод сжатия : С потерями Размер потока : 172 Мбайт (8%) Заголовок : Профессиональный (многоголосый закадровый) СТС Язык : Russian Default : Да Forced : Нет Аудио #2 Идентификатор : 3 Формат : AC-3 Формат/Информация : Audio Coding 3 Расширение режима : CM (complete main) Параметр Endianness формата : Big Идентификатор кодека : A_AC3 Продолжительность : 2 ч. 5 м. Вид битрейта : Постоянный Битрейт : 384 Кбит/сек Каналы : 6 каналов Расположение каналов : Front: L C R, Side: L R, LFE Частота : 48,0 КГц Битовая глубина : 16 бит Метод сжатия : С потерями Размер потока : 344 Мбайт (16%) Заголовок : Авторский одноголосый (А. Гаврилов) Язык : Russian Default : Нет Forced : Нет Аудио #3 Идентификатор : 4 Формат : AC-3 Формат/Информация : Audio Coding 3 Расширение режима : CM (complete main) Параметр Endianness формата : Big Идентификатор кодека : A_AC3 Продолжительность : 2 ч. 5 м. Вид битрейта : Постоянный Битрейт : 192 Кбит/сек Каналы : 2 канала Расположение каналов : Front: L R Частота : 48,0 КГц Битовая глубина : 16 бит Метод сжатия : С потерями Размер потока : 172 Мбайт (8%) Заголовок : Оригинал (Английский) Язык : English Default : Нет Forced : Нет Текст Идентификатор : 5 Формат : UTF-8 Идентификатор кодека : S_TEXT/UTF8 Идентификатор кодека/Информация : UTF-8 Plain Text Язык : English Default : Да Forced : Нет
[+] Скриншоты

Всего файлов в раздаче: 1 
Jennifer Eight.1992.BDRip-AVC.mkv2.05 GB

Похожие раздачи по запросу - Дженнифер
2024-02-07 magnet Дженнифер 8 / Jennifer Eight (1992) BDRip | Р, A 2.25 GB ↑ 0 ↓ 0
2022-04-06 magnet Стиллмен Эндрю, Грин Дженнифер - Head First. Изучаем C#. 4-е изд (2022) PDF 54.36 MB ↑ 0 ↓ 0

Комментарии


Зарегистрируйтесь чтобы добавить комментарий
Торрент клиент
byTorrent - программа для загрузки торрент-файлов.

Скачать byTorrent.exe (1,5 МБ)

Скачать byTorrent.zip (0,6 МБ)

Поддержи torrent.by
российских рублей
(300 российских рублей это 4$)

Обратная связь rss

End game ©