↑↓torrent.by
Поиск
Логин:  Регистрация
Пароль:

Оффлайн [S02] (2023) WEBRip-HEVC 2160p | 4K | SDR

download Скачать торрент-файл   magnet Магнитная ссылка Размер: 43.69 GB Добавлен: 2024-02-07 17:00
Пиры будут получены из сети DHT
Последний сидер был замечен 2024-02-07 17:00
Информация о фильме Оригинальное название: Оффлайн. Уязвимость обнаружена Год выпуска: 2023 Жанр: Триллер, детектив, драма Выпущено: Россия, BUBBLEGUM PRODUCTION Режиссер: Кирилл Плетнёв В ролях: Никита Ефремов, Денис Шведов, Никита Кологривый, Полина Максимова, Альфия Закирова, Марина Ворожищева, Алёна Константинова, Тина Стойилкович, Егор Кенжаметов, Игорь Черневич, Риналь Мухаметов, Полина Пушкарук, Алексей Шевченков, Дмитрий Ульянов (I), Анна Каменкова О фильме: Продолжении истории поднимается на следующую ступень киберпреступности - шпионаж, где ставки значительно выше, а соперники куда умнее и хитрее любых наркодилеров. Расту предстоит сыграть в игру с кем-то, кто способен продумывать свой план на несколько шагов вперед. Единственный шанс для победы – быть на шаг дальше, а любая ошибка будет стоить очень дорого… В этом противостоянии Раст становится все больше похожим на главного антагониста и в итоге встает перед выбором: принять, что он гениальный киберпреступник, который все лучше чувствует себя в этом темном мире – или что он любящий муж и отец, все еще надеющийся собрать свою семью вместе. Продолжительность: 10x ~ 00:50:00 Язык: Русский Файл Формат: MKV Качество: WEBRip-HEVC 2160p | 4K | SDR Видео: MPEG-H HEVC, ~ 12 Мбит/с, 3840х2160, 8 бит Аудио №1: E-AC3, 6 ch, 384 Кбит/с | С цензурой Аудио №2: E-AC3, 6 ch, 384 Кбит/с | Без цензуры (18+) Субтитры: Отсутствуют
[+] MIGeneral Unique ID : 3728054530833179211576704532673863405 (0x2CDFF478CEDADEBCA36357FDCAE1EED) Complete name : W:Offlain.S02.2023.WEB-DL.SDR.2160p.DenSBKOfflain.S02.E01.2023.WEB-DL.SDR.2160p.DenSBK.mkv Format : Matroska Format version : Version 4 / Version 2 File size : 4.35 GiB Duration : 49 min 22 s Overall bit rate : 12.6 Mb/s Encoded date : UTC 2023-12-12 22:00:45 Writing application : mkvmerge v81.0 ('Milliontown') 64-bit Writing library : libebml v1.4.4 + libmatroska v1.7.1 Video ID : 1 Format : HEVC Format/Info : High Efficiency Video Coding Format profile : Main@L5@Main Codec ID : V_MPEGH/ISO/HEVC Duration : 49 min 22 s Bit rate : 11.8 Mb/s Width : 3 840 pixels Height : 2 160 pixels Display aspect ratio : 16:9 Frame rate mode : Constant Frame rate : 25.000 FPS Color space : YUV Chroma subsampling : 4:2:0 Bit depth : 8 bits Bits/(Pixel*Frame) : 0.057 Stream size : 4.09 GiB (94%) Writing library : x265 3.5+1-f0c1022b6: 8bit+10bit+12bit Encoding settings : cpuid=1111039 / frame-threads=3 / wpp / no-pmode / no-pme / no-psnr / no-ssim / log-level=2 / input-csp=1 / input-res=3840x2160 / interlace=0 / total-frames=0 / level-idc=0 / high-tier=1 / uhd-bd=0 / ref=4 / no-allow-non-conformance / repeat-headers / annexb / no-aud / no-hrd / info / hash=0 / no-temporal-layers / no-open-gop / min-keyint=50 / keyint=50 / gop-lookahead=0 / bframes=3 / b-adapt=0 / b-pyramid / bframe-bias=0 / rc-lookahead=25 / lookahead-slices=4 / scenecut=0 / hist-scenecut=0 / radl=0 / no-splice / no-intra-refresh / ctu=64 / min-cu-size=8 / rect / no-amp / max-tu-size=32 / tu-inter-depth=1 / tu-intra-depth=1 / limit-tu=0 / rdoq-level=2 / dynamic-rd=0.00 / no-ssim-rd / signhide / no-tskip / nr-intra=0 / nr-inter=0 / no-constrained-intra / strong-intra-smoothing / max-merge=3 / limit-refs=3 / limit-modes / me=2 / subme=3 / merange=57 / temporal-mvp / no-frame-dup / no-hme / weightp / no-weightb / no-analyze-src-pics / deblock=0:0 / sao / no-sao-non-deblock / rd=3 / selective-sao=4 / no-early-skip / rskip / no-fast-intra / no-tskip-fast / no-cu-lossless / no-b-intra / no-splitrd-skip / rdpenalty=0 / psy-rd=2.00 / psy-rdoq=0.00 / no-rd-refine / no-lossless / cbqpoffs=0 / crqpoffs=0 / rc=abr / bitrate=12000 / qcomp=0.80 / qpstep=4 / stats-write=0 / stats-read=2 / cplxblur=20.0 / qblur=0.5 / vbv-maxrate=18000 / vbv-bufsize=24000 / vbv-init=0.8 / min-vbv-fullness=50.0 / max-vbv-fullness=80.0 / ipratio=1.40 / pbratio=1.30 / aq-mode=2 / aq-strength=1.00 / cutree / zone-count=0 / no-strict-cbr / qg-size=32 / no-rc-grain / qpmax=69 / qpmin=1 / no-const-vbv / sar=0 / overscan=0 / videoformat=5 / range=0 / colorprim=2 / transfer=2 / colormatrix=2 / chromaloc=0 / display-window=0 / cll=0,0 / min-luma=0 / max-luma=255 / log2-max-poc-lsb=8 / vui-timing-info / vui-hrd-info / slices=1 / no-opt-qp-pps / no-opt-ref-list-length-pps / no-multi-pass-opt-rps / scenecut-bias=0.05 / hist-threshold=0.03 / no-opt-cu-delta-qp / no-aq-motion / no-hdr10 / no-hdr10-opt / no-dhdr10-opt / no-idr-recovery-sei / analysis-reuse-level=0 / analysis-save-reuse-level=0 / analysis-load-reuse-level=0 / scale-factor=0 / refine-intra=0 / refine-inter=0 / refine-mv=1 / refine-ctu-distortion=0 / no-limit-sao / ctu-info=0 / no-lowpass-dct / refine-analysis-type=0 / copy-pic=1 / max-ausize-factor=1.0 / no-dynamic-refine / no-single-sei / no-hevc-aq / no-svt / no-field / qp-adaptation-range=1.00 / scenecut-aware-qp=0conformance-window-offsets / right=0 / bottom=0 / decoder-max-rate=0 / no-vbv-live-multi-pass Language : Russian Default : Yes Forced : No Color range : Limited Audio #1 ID : 2 Format : E-AC-3 Format/Info : Enhanced Audio Coding 3 Codec ID : A_EAC3 Duration : 49 min 22 s Bit rate mode : Constant Bit rate : 384 kb/s Channel(s) : 6 channels Channel positions : Front: L C R, Side: L R, LFE Sampling rate : 48.0 kHz Frame rate : 187.500 FPS (256 SPF) Compression mode : Lossy Stream size : 136 MiB (3%) Title : Language : Russian Service kind : Complete Main Default : Yes Forced : No Audio #2 ID : 3 Format : E-AC-3 Format/Info : Enhanced Audio Coding 3 Codec ID : A_EAC3 Duration : 49 min 22 s Bit rate mode : Constant Bit rate : 384 kb/s Channel(s) : 6 channels Channel positions : Front: L C R, Side: L R, LFE Sampling rate : 48.0 kHz Frame rate : 187.500 FPS (256 SPF) Compression mode : Lossy Stream size : 136 MiB (3%) Title : Language : Russian Service kind : Complete Main Default : No Forced : No
[+] Скриншоты

Всего файлов в раздаче: 10 
Offlain.S02.E01.2023.WEB-DL.SDR.2160p.DenSBK.mkv4.35 GB
Offlain.S02.E02.2023.WEB-DL.SDR.2160p.DenSBK.mkv4.25 GB
Offlain.S02.E03.2023.WEB-DL.SDR.2160p.DenSBK.mkv4.27 GB
Offlain.S02.E04.2023.WEB-DL.SDR.2160p.DenSBK.mkv4.49 GB
Offlain.S02.E05.2023.WEB-DL.SDR.2160p.DenSBK.mkv4.38 GB
Offlain.S02.E06.2023.WEB-DL.SDR.2160p.DenSBK.mkv5.14 GB
Offlain.S02.E07.2023.WEB-DL.SDR.2160p.DenSBK.mkv4.25 GB
Offlain.S02.E08.2023.WEB-DL.SDR.2160p.DenSBK.mkv4.48 GB
Offlain.S02.E09.2023.WEB-DL.SDR.2160p.DenSBK.mkv4.00 GB
Offlain.S02.E10.2023.WEB-DL.SDR.2160p.DenSBK.mkv4.07 GB

Похожие раздачи по запросу - Оффлайн
2024-02-13 magnet Оффлайн [S02] (2023) WEBRip от Generalfilm | КПК 1.85 GB ↑ 0 ↓ 0
2024-02-08 magnet Оффлайн [S02] (2023) WEBRip-AVC от Files-х 8.26 GB ↑ 0 ↓ 0
2024-02-07 magnet Оффлайн [S02] (2023) WEBRip 720p от ExKinoRay 13.64 GB ↑ 0 ↓ 0
2024-02-07 magnet Оффлайн [S02] (2023) WEBRip 1080p от ExKinoRay 1К22.46 GB ↑ 0 ↓ 0
2024-02-07 magnet Оффлайн [S02] (2023) WEBRip 8.48 GB ↑ 0 ↓ 0
2024-02-01 magnet Оффлайн [02x01-09 из 10] (2023) WEBRip-HEVC 2160p | 4K | SDR 39.62 GB ↑ 0 ↓ 0
2024-01-31 magnet Оффлайн [02х01-09 из 10] (2023) WEBRip-AVC от Files-х 1К7.49 GB ↑ 0 ↓ 0

Комментарии


Зарегистрируйтесь чтобы добавить комментарий
Торрент клиент
byTorrent - программа для загрузки торрент-файлов.

Скачать byTorrent.exe (1,5 МБ)

Скачать byTorrent.zip (0,6 МБ)

Поддержи torrent.by
российских рублей
(300 российских рублей это 4$)

Обратная связь rss

End game ©