↑↓torrent.by
Поиск
Логин:  Регистрация
Пароль:

Любовная загвоздка / Accidental Love (2013) WEB-DL 1080p | D

download Скачать торрент-файл   magnet Магнитная ссылка Размер: 2.90 GB Добавлен: 2024-02-07 17:00
Пиры будут получены из сети DHT
Последний сидер был замечен 2024-02-08 16:57
Информация о фильме Название: Любовная загвоздка Оригинальное название: Accidental Love Год выпуска: 2013 Жанр: мелодрама, комедия Выпущено: США, Великобритания / K. JAM Media, Persistent Entertainment, Vocal Yokels Режиссер: Дэвид О. Расселл В ролях: Джессика Бил, Джейк Джилленхол, Кэтрин Кинер, Джеймс Марсден, Трэйси Морган, Джеймс Бролин, Ray Brown, Дженни Галли, Беверли Д’Анджело, Стив Боулс Описание: По роковому стечению обстоятельств в голову хорошенькой официантки попал гвоздь. Инородное тело становится причиной непредсказуемого поведения девушки. Поскольку у нее нет медицинской страховки, врачи отказываются ее лечить. В результате она отправляется в Вашингтон, где встречает бестолкового молодого сенатора... Продолжительность: 01:40:36 Перевод: Дублированный (Официальный) Субтитры: Отсутствуют Файл Формат: MKV Качество: WEB-DL 1080p Видео: AVC/H.264, 1920x1080, ~4000 Kbps Аудио: AAC, 2 ch, 129 Kbps - Русский (DUB) Релиз от: karfagen1975
[+] MediaInfo:General Unique ID : 231091336477209429094456509531383009465 (0xADDA928E1D43EC922C958A7C488210B9) Complete name : Accidental Love (2013) WEB-DL 1080p.mkv Format : Matroska Format version : Version 4 File size : 2.90 GiB Duration : 1 h 40 min Overall bit rate : 4 125 kb/s Frame rate : 25.000 FPS Encoded date : 2024-02-06 15:54:31 UTC Writing application : mkvmerge v75.0.0 ('Goliath') 64-bit Writing library : libebml v1.4.4 + libmatroska v1.7.1 Video ID : 1 Format : AVC Format/Info : Advanced Video Codec Format profile : High@L4 Format settings : CABAC / 3 Ref Frames Format settings, CABAC : Yes Format settings, Reference frames : 3 frames Codec ID : V_MPEG4/ISO/AVC Duration : 1 h 40 min Bit rate : 3 994 kb/s Width : 1 920 pixels Height : 1 080 pixels Display aspect ratio : 16:9 Frame rate mode : Constant Frame rate : 25.000 FPS Color space : YUV Chroma subsampling : 4:2:0 Bit depth : 8 bits Scan type : Progressive Bits/(Pixel*Frame) : 0.077 Stream size : 2.81 GiB (97%) Title : Любовная загвоздка (2013) WEB-DL 1080p Language : English Default : Yes Forced : No Audio ID : 2 Format : AAC LC Format/Info : Advanced Audio Codec Low Complexity Codec ID : A_AAC-2 Duration : 1 h 40 min Bit rate : 129 kb/s Channel(s) : 2 channels Channel layout : L R Sampling rate : 48.0 kHz Frame rate : 46.875 FPS (1024 SPF) Compression mode : Lossy Stream size : 92.5 MiB (3%) Title : DUB (Oficial) Language : Russian Default : Yes Forced : No
[+] Знаете ли вы, что…Дэвид О. Расселл снял этот фильм еще в 2008 году, и с тех пор картина лежала на полке. Съемки фильма часто прерывались из-за финансовых трудностей, что в конечном счете привело к тому, что Дэвид О. Рассел покинул проект в 2010 году. В связи с чем в титрах в качестве режиссера указан Стивен Грин (псевдоним, часто использующийся в случаях, когда режиссёр по тем или иным причинам отказывается указывать своё имя в титрах.) Первоначально фильм должен был называться «Пригвождённая» (Nailed)
[+] Скриншоты
[+] Дополнительные скриншоты:

Всего файлов в раздаче: 1 
Accidental Love (2013) WEB-DL 1080p.mkv2.90 GB

Похожие раздачи по запросу - Любовная
2024-01-04 magnet Зигфрид и любовная жизнь Нибелунгов / Siegfried und das sagenhafte Liebesleben der Nibelungen (1971) HDTVRip | L1 745.17 MB ↑ 1 ↓ 0

Комментарии


Зарегистрируйтесь чтобы добавить комментарий
Торрент клиент
byTorrent - программа для загрузки торрент-файлов.

Скачать byTorrent.exe (1,5 МБ)

Скачать byTorrent.zip (0,6 МБ)

Поддержи torrent.by
российских рублей
(300 российских рублей это 4$)

Обратная связь rss

End game ©