↑↓torrent.by
Поиск
Логин:  Регистрация
Пароль:

Вампиры / Vampires (1998) HDRip-AVC от ExKinoRay | D

download Скачать торрент-файл   magnet Магнитная ссылка Размер: 745.95 MB Добавлен: 2024-02-07 17:00
Пиры будут получены из сети DHT
Последний сидер был замечен 2024-02-08 05:37
Информация о фильме Название: Вампиры Оригинальное название: Vampires Год выхода: 1998 Жанр: Ужасы, фэнтези, боевик, триллер Режиссер: Джон Карпентер В ролях: Джеймс Вудс, Дэниэл Болдуин, Шерил Ли, Томас Иэн Гриффит, Максимилиан Шелл, Тим Гини, Марк Бун Джуниор, Грегори Сьерра, Кэри-Хироюки Тагава, Томас Розалес мл., Генри Кинги, Дэвид Роуден, Кларк Коулмэн, Марк Сивертсен, Джон Фурлонг, Анджелина Торрес, Джимми Ортега, Гилберт Розалес, Даниэль Бургио, Лаура Кордова, Трой Робинсон, Анита Харт, Джон Касино, Чад Стахелски, Стив Блэлок, Марджин Холден, Крис Томас-Паломино, Джулия МакФеррин, Лори Диллен, Джэйк Уолкер, Майкл Хаддлстон, Тодд Андерсон, Люче Рэйнс, Дэннис Э. Гарбер, Роберт Льюис Буш, Фрэнк Дарабонт, Мона Гарсия О фильме : По заданию Ватикана Джек Кроу, потомственный охотник на вампиров, и его друг, и напарник Монтойя безжалостно расправляются с вурдалаками, но их главная цель — особо опасный вампир Валек, уроженец Праги, 1300-го года рождения. В охоте на вампира Джеку и Монтойе помогает молодой священник, вооруженный знаниями из древних трактатов о кровососах. Валек ищет в Штатах древнее распятие, обладающее особой силой. Как известно, вампиры боятся солнечных лучей, убивающих их. Проведение магического обряда с распятием позволит Валеку не бояться солнечного света и сделает его всемогущим. Охотники за вампирами должны поспешить, пока Валек еще уязвим, пока его еще можно убить… Страна: США, Япония Студия: Film Office, JVC Entertainment, Largo Entertainment, Spooky Tooth Productions, Storm King Productions Продолжительность: 01:47:47 Перевод: Профессиональный (полное дублирование) Файл Формат: MKV Качество: HDRip-AVC Видео: MPEG-4 AVC, 768x320, ~ 890 Кбит/с Аудио: AAC-HE, 2 ch, ~ 76 Кбит/с Субтитры: Русские, английские
[+] MIОбщее Уникальный идентификатор : 228442104236381628512225385998434766684 (0xABDC59523750C0FEBAFB22907B8D0F5C) Полное имя : D:MOVIESVampiry.1998.ExKinoRay.mkv Формат : Matroska Версия формата : Version 4 / Version 2 Размер файла : 746 Мбайт Продолжительность : 1 ч. 47 м. Общий поток : 968 Кбит/сек Дата кодирования : UTC 2018-05-29 15:48:03 Программа кодирования : mkvmerge v15.0.0 ('Duel with the Devil') 64-bit Библиотека кодирования : libebml v1.3.5 + libmatroska v1.4.5 Видео Идентификатор : 1 Формат : AVC Формат/Информация : Advanced Video Codec Профиль формата : High@L4.1 Параметр CABAC формата : Да Параметр RefFrames формата : 10 кадров Идентификатор кодека : V_MPEG4/ISO/AVC Продолжительность : 1 ч. 47 м. Битрейт : 890 Кбит/сек Ширина : 768 пикселей Высота : 320 пикселей Соотношение сторон : 2,40:1 Режим частоты кадров : Постоянный Частота кадров : 24,000 кадра/сек Цветовое пространство : YUV Субдискретизация насыщенности : 4:2:0 Битовая глубина : 8 бит Тип развёртки : Прогрессивная Бит/(Пиксели*Кадры) : 0.151 Размер потока : 686 Мбайт (92%) Библиотека кодирования : x264 core 152 r2851kMod ba24899 Настройки программы : cabac=1 / ref=10 / deblock=1:-3:-3 / analyse=0x3:0x133 / me=umh / subme=11 / psy=1 / fade_compensate=0.00 / psy_rd=1.00:0.14 / mixed_ref=1 / me_range=32 / chroma_me=1 / trellis=2 / 8x8dct=1 / cqm=0 / deadzone=21,11 / fast_pskip=0 / chroma_qp_offset=-3 / threads=6 / lookahead_threads=1 / sliced_threads=0 / nr=0 / decimate=0 / interlaced=0 / bluray_compat=0 / constrained_intra=0 / bframes=10 / b_pyramid=2 / b_adapt=2 / b_bias=0 / direct=3 / weightb=1 / open_gop=0 / weightp=2 / keyint=240 / keyint_min=23 / scenecut=40 / intra_refresh=0 / rc_lookahead=40 / rc=2pass / mbtree=1 / bitrate=890 / ratetol=1.0 / qcomp=0.60 / qpmin=0 / qpmax=69 / qpstep=4 / cplxblur=20.0 / qblur=0.5 / vbv_maxrate=50000 / vbv_bufsize=62500 / nal_hrd=none / filler=0 / ip_ratio=1.40 / aq=3:1.00 Default : Да Forced : Нет Аудио Идентификатор : 2 Формат : AAC Формат/Информация : Advanced Audio Codec Профиль формата : HE-AAC / LC Идентификатор кодека : A_AAC Продолжительность : 1 ч. 47 м. Битрейт : 76,0 Кбит/сек Каналы : 2 канала Расположение каналов : Front: L R Частота : 48,0 КГц / 24,0 КГц Частота кадров : 23,438 кадра/сек (1024 SPF) Метод сжатия : С потерями Задержка видео : 31 мс. Размер потока : 58,6 Мбайт (8%) Default : Да Forced : Нет Текст #1 Идентификатор : 3 Формат : UTF-8 Идентификатор кодека : S_TEXT/UTF8 Идентификатор кодека/Информация : UTF-8 Plain Text Продолжительность : 1 ч. 41 м. Битрейт : 63 бит/сек ElementCount : 787 Размер потока : 47,3 Кбайт (0%) Язык : Russian Default : Нет Forced : Нет Текст #2 Идентификатор : 4 Формат : UTF-8 Идентификатор кодека : S_TEXT/UTF8 Идентификатор кодека/Информация : UTF-8 Plain Text Продолжительность : 1 ч. 41 м. Битрейт : 38 бит/сек ElementCount : 964 Размер потока : 28,7 Кбайт (0%) Язык : English Default : Нет Forced : Нет Меню 00:00:00.000 : en:00:00:00.000 00:03:37.667 : en:00:03:37.667 00:11:02.417 : en:00:11:02.417 00:14:55.625 : en:00:14:55.625 00:19:05.583 : en:00:19:05.583 00:22:33.125 : en:00:22:33.125 00:25:50.292 : en:00:25:50.292 00:28:38.250 : en:00:28:38.250 00:35:29.000 : en:00:35:29.000 00:39:50.167 : en:00:39:50.167 00:45:37.167 : en:00:45:37.167 00:52:25.583 : en:00:52:25.583 00:57:38.750 : en:00:57:38.750 00:59:34.042 : en:00:59:34.042 01:01:23.583 : en:01:01:23.583 01:06:36.792 : en:01:06:36.792 01:13:40.417 : en:01:13:40.417 01:19:01.500 : en:01:19:01.500 01:25:30.333 : en:01:25:30.333 01:29:50.083 : en:01:29:50.083 01:31:48.958 : en:01:31:48.958 01:34:21.167 : en:01:34:21.167 01:39:16.958 : en:01:39:16.958 01:43:34.417 : en:01:43:34.417
[+] Скриншоты
Релиз от:

Всего файлов в раздаче: 1 
Vampiry.1998.ExKinoRay.mkv745.95 MB

Похожие раздачи по запросу - Вампиры
2024-02-08 magnet Вампиры / Vampires (1998) BDRip-HEVC 1080p от HEVC-CLUB | D, P, A 7.70 GB ↑ 0 ↓ 0
2024-02-08 magnet Вампиры / Vampires (1998) BDRip 1080p от HDReactor | D, P, A | UK Transfer 2К15.52 GB ↑ 0 ↓ 0
2021-12-31 magnet Вампиры средней полосы. Новогодняя серия (2021) WEBRip-AVC от Files-x 830.05 MB ↑ 0 ↓ 0

Комментарии

mussik111
Спасибо большое за отличный фильм!!! Качество отличное!!!


Зарегистрируйтесь чтобы добавить комментарий
Торрент клиент
byTorrent - программа для загрузки торрент-файлов.

Скачать byTorrent.exe (1,5 МБ)

Скачать byTorrent.zip (0,6 МБ)

Поддержи torrent.by
российских рублей
(300 российских рублей это 4$)

Обратная связь rss

End game ©