↑↓torrent.by
Поиск
Логин:  Регистрация
Пароль:

Международная космическая станция / I.S.S. (2023) WEB-DL 1080p от JNS82 | Sub

download Скачать торрент-файл   magnet Магнитная ссылка Размер: 6.37 GB Добавлен: 2024-02-07 17:00
Пиры будут получены из сети DHT
Последний сидер был замечен вчера в 23:17
Международная космическая станция / I.S.S. Год выпуска: 2023 Выпущено: США, LD Entertainment Жанр: Фантастика, триллер Режиссер: Габриэла Каупертуэйт / Gabriela Cowperthwaite В ролях: Ариана ДеБос, Крис Мессина, Пилу Асбек, Мария Машкова, Коста Ронин, Джон Галлахер мл. О фильме: Когда между США и Россией начинается война, обе стороны связываются со своими космонавтами на борту МКС и ставят им цель взять станцию под контроль любыми средствами. Продолжительность: 01:35:42 Перевод: Субтитры Субтитры: Русские (full (stirlooo)), английские (forced, full, SDH) Автор релиза: JNS82. Формат: MKV Качество: WEB-DL 1080p | AMZN Видео: MPEG-4 AVC, 8879 Кбит/с, 1920x816 Аудио #2: E-AC3, 6 ch, 640 Кбит/с | ENG |
[+] MediaInfoОбщее Уникальный идентификатор : 260681836514517579253368622150115225976 (0xC41D7ED870B6DE36959D32FA60A97178) Полное имя : D:TorrentsI.S.S.2023.1080p.AMZN_by_JNS82.mkv Формат : Matroska Версия формата : Version 4 Размер файла : 6,37 Гбайт Продолжительность : 1 ч. 35 м. Общий поток : 9 522 Кбит/сек Название фильма : I.S.S.2023.1080p.AMZN_by_JNS82 Дата кодирования : UTC 2024-02-07 07:16:19 Программа кодирования : mkvmerge v79.0 ('Funeral Pyres') 64-bit Библиотека кодирования : libebml v1.4.4 + libmatroska v1.7.1 Видео Идентификатор : 1 Формат : AVC Формат/Информация : Advanced Video Codec Профиль формата : High@L4 Настройки формата : CABAC / 4 Ref Frames Параметр CABAC формата : Да Параметр RefFrames формата : 4 кадра Идентификатор кодека : V_MPEG4/ISO/AVC Продолжительность : 1 ч. 35 м. Вид битрейта : Постоянный Битрейт : 8 879 Кбит/сек Номинальный битрейт : 10 000 Кбит/сек Ширина : 1 920 пикселей Высота : 816 пикселей Соотношение сторон : 2,35:1 Режим частоты кадров : Постоянный Частота кадров : 23,976 (24000/1001) кадра/сек Цветовое пространство : YUV Субдискретизация насыщенности : 4:2:0 Битовая глубина : 8 бит Тип развёртки : Прогрессивная Бит/(Пиксели*Кадры) : 0.236 Размер потока : 5,94 Гбайт (93%) Язык : English Default : Да Forced : Нет Цветовой диапазон : Limited Основные цвета : BT.709 Характеристики трансфера : BT.709 Коэффициенты матрицы : BT.709 Аудио Идентификатор : 2 Формат : E-AC-3 Формат/Информация : Enhanced AC-3 Коммерческое название : Dolby Digital Plus Идентификатор кодека : A_EAC3 Продолжительность : 1 ч. 35 м. Вид битрейта : Постоянный Битрейт : 640 Кбит/сек Каналы : 6 каналов Channel layout : L R C LFE Ls Rs Частота : 48,0 КГц Частота кадров : 31,250 кадров/сек (1536 SPF) Метод сжатия : С потерями Размер потока : 438 Мбайт (7%) Заголовок : Original Язык : English Service kind : Complete Main Default : Да Forced : Нет Текст #1 Идентификатор : 3 Формат : UTF-8 Идентификатор кодека : S_TEXT/UTF8 Идентификатор кодека/Информация : UTF-8 Plain Text Продолжительность : 1 ч. 28 м. Битрейт : 75 бит/сек Count of elements : 1027 Размер потока : 48,6 Кбайт (0%) Заголовок : ] Язык : Russian Default : Да Forced : Нет Текст #2 Идентификатор : 4 Формат : UTF-8 Идентификатор кодека : S_TEXT/UTF8 Идентификатор кодека/Информация : UTF-8 Plain Text Продолжительность : 1 ч. 21 м. Битрейт : 5 бит/сек Count of elements : 147 Размер потока : 3,39 Кбайт (0%) Заголовок : Язык : English Default : Нет Forced : Нет Текст #3 Идентификатор : 5 Формат : UTF-8 Идентификатор кодека : S_TEXT/UTF8 Идентификатор кодека/Информация : UTF-8 Plain Text Продолжительность : 1 ч. 26 м. Битрейт : 50 бит/сек Count of elements : 1072 Размер потока : 32,1 Кбайт (0%) Заголовок : Язык : English Default : Нет Forced : Нет Текст #4 Идентификатор : 6 Формат : UTF-8 Идентификатор кодека : S_TEXT/UTF8 Идентификатор кодека/Информация : UTF-8 Plain Text Продолжительность : 1 ч. 28 м. Битрейт : 59 бит/сек Count of elements : 1280 Размер потока : 38,6 Кбайт (0%) Заголовок : Язык : English Default : Нет Forced : Нет

Всего файлов в раздаче: 1 
I.S.S.2023.1080p.AMZN_by_JNS82.mkv6.37 GB

Похожие раздачи по запросу - Международная
2024-02-10 magnet Международная космическая станция / I.S.S. [2023, триллер, драма, WEB-DLRip-AVC] DVO (ViruseProject) 1.76 GB ↑ 1 ↓ 0
2024-02-08 magnet Международная космическая станция / I.S.S. (2023) WEB-DLRip-AVC от DoMiNo & селезень | P2 | ViruseProject 1.44 GB ↑ 1 ↓ 0
2024-02-08 magnet Международная космическая станция / I.S.S. (2023) WEB-DL 1080p | ViruseProject 6.79 GB ↑ 0 ↓ 0
2024-02-08 magnet Международная космическая станция / I.S.S. (2023) WEB-DL 1080p от New-Team | P2 | ViruseProject 3К6.49 GB ↑ 0 ↓ 0
2024-02-08 magnet Международная космическая станция / I.S.S. (2023) WEB-DL 720p от ExKinoRay | ViruseProject 2.97 GB ↑ 0 ↓ 0
2024-02-08 magnet Международная космическая станция / I.S.S. (2023) WEB-DLRip от MegaPeer | P2 | ViruseProject 1.46 GB ↑ 0 ↓ 0

Комментарии

mussik111
Это глубокий фильм с харизматичными персонажами и внезапными поворотами сюжета.

mussik111
Бред какой-то...


Зарегистрируйтесь чтобы добавить комментарий
Торрент клиент
byTorrent - программа для загрузки торрент-файлов.

Скачать byTorrent.exe (1,5 МБ)

Скачать byTorrent.zip (0,6 МБ)

Поддержи torrent.by
российских рублей
(300 российских рублей это 4$)

Обратная связь rss

End game ©