↑↓torrent.by
Поиск
Логин:  Регистрация
Пароль:

Тайное происхождение / Orígenes secretos / Unknown Origins (2020) WEB-DLRip 720p от DoMiNo | P2 | ViruseProject

download Скачать торрент-файл   magnet Магнитная ссылка Размер: 1.74 GB Добавлен: 2024-02-08 05:00
Пиры будут получены из сети DHT
Последний сидер был замечен 2024-02-08 19:09
Информация о фильме Название: Тайное происхождение Оригинальное название: Orígenes secretos Год выхода: 2020 Жанр: боевик, триллер, драма, комедия, криминал, детектив, приключения Режиссер: Дэвид Галан Галиндо В ролях: Леонардо Сбаралья, Вероника Эчеги, Хавьер Рей, Алекс Гарсия, Эрнесто Альтерио, Брайс Эфе, Антонио Ресинес, Карлос Аресес, Роман Римар, Фран Блю О фильме: Нам первоначально предстоит узнать о достаточно пугающих событий, с которыми сталкиваются в свою очередь местные граждане Испанского Мадрида. Именно в эти края был командирован молодой, но обладающий определенным чутьем и интуицией сотрудник правоохранительных органов по имени Дэвид. Ему естественно по долгу своих обязанностей необходимо в крайний срок выйти на предполагаемого душегуба, творящего бесчинства. Ему нужно начать следственные мероприятия, которые сведут с пареньком Хорхе, выполняющим непосредственную работу странноватого продавца комиксов. Так как все убитые жертвы кровавого маньяка фактически ни чем не связаны, кроме появления каких-то комикс-историй, главные герои вынужденно объединят собственные усилия, чтобы любыми путями, рискуя жизнью, в точности определить преступника и соответственно отправить того за решетку. Страна: Испания Студия: In Post We Trust, La Chica de la Curva, Nadie es Perfecto Продолжительность: 01:36:59 Перевод: Профессиональный (двухголосый, закадровый) Субтитры: Русские, английские, испанские Файл Формат: Matroska Качество: WEB-DLRip 720p Видео: 1280x536 at 24.000 fps, x264@L4.1, ~2118 kbps Аудио: AC3, 6 ch, ~448 kbps - | Русский | - ***Релиз от: -=DoMiNo=-
[+] M/Ix264 : frame I:1377 Avg QP:16.67 size: 73147 x264 : frame P:29476 Avg QP:17.72 size: 24522 x264 : frame B:108783 Avg QP:21.34 size: 6593 x264 : consecutive B-frames: 1.9% 2.4% 9.5% 13.8% 13.8% 55.8% 1.2% 0.2% 0.2% 0.2% 0.1% 0.2% 0.4% General Unique ID : 39886920668901674280156222238147536581 (0x1E01F105868C1B77A1C18BE67E6CE6C5) Complete name : G:Orígenes.secretos.(2020).WEB-DLRip.x264.720p.mkv Format : Matroska Format version : Version 4 File size : 1.74 GiB Duration : 1 h 36 min Overall bit rate : 2 569 kb/s Encoded date : UTC 2021-10-04 15:43:51 Writing application : mkvmerge v61.0.0 ('So') 64-bit Writing library : libebml v1.4.2 + libmatroska v1.6.4 Cover : Yes Attachments : Cover.jpg / Cover 2.jpg Video ID : 1 Format : AVC Format/Info : Advanced Video Codec Format profile : High@L4.1 Format settings : CABAC / 9 Ref Frames Format settings, CABAC : Yes Format settings, Reference : 9 frames Codec ID : V_MPEG4/ISO/AVC Duration : 1 h 36 min Bit rate : 2 118 kb/s Width : 1 280 pixels Height : 536 pixels Display aspect ratio : 2.40:1 Frame rate mode : Constant Frame rate : 24.000 FPS Color space : YUV Chroma subsampling : 4:2:0 Bit depth : 8 bits Scan type : Progressive Bits/(Pixel*Frame) : 0.129 Stream size : 1.43 GiB (82%) Title : -=DoMiNo=- Writing library : x264 core 159 r2991 1771b55 Encoding settings : cabac=1 / ref=9 / deblock=1:-2:-2 / analyse=0x3:0x133 / me=umh / subme=10 / psy=1 / psy_rd=1.00:0.15 / mixed_ref=1 / me_range=32 / chroma_me=1 / trellis=2 / 8x8dct=1 / cqm=0 / deadzone=21,11 / fast_pskip=1 / chroma_qp_offset=-3 / threads=6 / lookahead_threads=1 / sliced_threads=0 / nr=0 / decimate=1 / interlaced=0 / bluray_compat=0 / constrained_intra=0 / bframes=12 / b_pyramid=2 / b_adapt=2 / b_bias=0 / direct=1 / weightb=1 / open_gop=0 / weightp=2 / keyint=250 / keyint_min=24 / scenecut=40 / intra_refresh=0 / rc_lookahead=60 / rc=crf / mbtree=0 / crf=19.0 / qcomp=0.60 / qpmin=0 / qpmax=69 / qpstep=4 / vbv_maxrate=50000 / vbv_bufsize=62500 / crf_max=0.0 / nal_hrd=none / filler=0 / ip_ratio=1.40 / pb_ratio=1.30 / aq=1:1.00 Language : English Default : Yes Forced : No Color range : Limited Color primaries : BT.709 Transfer characteristics : BT.709 Matrix coefficients : BT.709 Audio ID : 2 Format : AC-3 Format/Info : Audio Coding 3 Commercial name : Dolby Digital Codec ID : A_AC3 Duration : 1 h 36 min Bit rate mode : Constant Bit rate : 448 kb/s Channel(s) : 6 channels Channel layout : L R C LFE Ls Rs Sampling rate : 48.0 kHz Frame rate : 31.250 FPS (1536 SPF) Compression mode : Lossy Stream size : 311 MiB (17%) Title : DVO_ Language : Russian Service kind : Complete Main Default : Yes Forced : No Text #1 ID : 3 Format : UTF-8 Codec ID : S_TEXT/UTF8 Codec ID/Info : UTF-8 Plain Text Duration : 1 h 36 min Bit rate : 104 b/s Count of elements : 1593 Stream size : 73.6 KiB (0%) Language : Russian Default : No Forced : No Text #2 ID : 4 Format : UTF-8 Codec ID : S_TEXT/UTF8 Codec ID/Info : UTF-8 Plain Text Duration : 1 h 36 min Bit rate : 66 b/s Count of elements : 1294 Stream size : 46.5 KiB (0%) Language : English Default : No Forced : No Text #3 ID : 5 Format : UTF-8 Codec ID : S_TEXT/UTF8 Codec ID/Info : UTF-8 Plain Text Duration : 1 h 36 min Bit rate : 83 b/s Count of elements : 1608 Stream size : 59.0 KiB (0%) Title : SDH Language : English Default : No Forced : No Text #4 ID : 6 Format : UTF-8 Codec ID : S_TEXT/UTF8 Codec ID/Info : UTF-8 Plain Text Duration : 1 h 35 min Bit rate : 81 b/s Count of elements : 1382 Stream size : 57.2 KiB (0%) Title : SDH Language : Spanish Default : No Forced : No Menu 00:00:00.000 : :Глава 01 00:05:30.000 : :Глава 02 00:11:00.000 : :Глава 03 00:16:30.000 : :Глава 04 00:22:00.000 : :Глава 05 00:27:30.000 : :Глава 06 00:33:00.000 : :Глава 07 00:38:30.000 : :Глава 08 00:44:00.000 : :Глава 09 00:49:30.000 : :Глава 10 00:55:00.000 : :Глава 11 01:00:30.000 : :Глава 12 01:06:00.000 : :Глава 13 01:11:30.000 : :Глава 14 01:17:00.000 : :Глава 15 01:22:30.000 : :Глава 16 01:28:00.000 : :Глава 17 01:33:30.000 : :Глава 18
[+] Скриншоты

Всего файлов в раздаче: 1 
Orígenes.secretos.(2020).WEB-DLRip.x264.720p.mkv1.74 GB

Похожие раздачи по запросу - Тайное
2024-02-08 magnet Тайное происхождение / Orígenes secretos / Unknown Origins (2020) WEB-DLRip от MegaPeer | ViruseProject 1.46 GB ↑ 0 ↓ 0

Комментарии


Зарегистрируйтесь чтобы добавить комментарий
Торрент клиент
byTorrent - программа для загрузки торрент-файлов.

Скачать byTorrent.exe (1,5 МБ)

Скачать byTorrent.zip (0,6 МБ)

Поддержи torrent.by
российских рублей
(300 российских рублей это 4$)

Обратная связь rss

End game ©