↑↓torrent.by
Поиск
Логин:  Регистрация
Пароль:

Капитан Марвел 2 / The Marvels (2023) WEB-DL 1080p от селезень | D | MovieDalen, Red Head Sound | IMAX

download Скачать торрент-файл   magnet Магнитная ссылка Размер: 6.08 GB Добавлен: 2024-02-08 05:00
Пиры будут получены из сети DHT
Последний сидер был замечен вчера в 07:36
Информация о фильме Название: Капитан Марвел 2 Оригинальное название: The Marvels Год выпуска: 2023 Жанр: фэнтези, боевик, приключения Режиссер: Ниа ДаКоста В ролях:Бри Ларсон, Тейона Паррис, Иман Веллани, Сэмюэл Л. Джексон, Зави Эштон, Гари Льюис, Пак Со-джун, Зенобия Шрофф, Мохан Капур, Саагар Шайх Описание: Кэрол Дэнверс обретает свою утраченную личность, отнятую тиранами Крии, и мстит Высшему Разуму. Однако, непредвиденные последствия приводят к тому, что Кэрол взваливает на свои плечи бремя дестабилизированной вселенной. Когда она проходит через червоточину, которая должна вывести её на революционера из числа Крии, её силы переплетаются со способностями суперфанатки из Джерси-Сити, Камалы Хан, известной как Мисс Марвел, а также с племянницей Кэрол, Моникой Рамбо (агентом организации «М. Е. Ч.»). Они должны объединиться и научиться действовать сообща, чтобы спасти вселенную. Выпущено: США, Marvel Studios Inc. Продолжительность: 01:44:38 Перевод 1: Дублированный (неофициальный) | Red Head Sound Перевод 2: Профессиональный (полное дублирование) | MovieDalen Субтитры: Русские (Forced, full), английские Файл Качество: WEB-DL 1080p | IMAX Формат: MKV Видео: 1920x1080, 24.000 fps, MPEG-4 AVC, ~6467 Kbps Аудио 1: AC3, 6 ch, ~640 kbps - | Русский | | Red Head Sound Аудио 2: AC3, 6 ch, ~448 kbps - | Русский | | MovieDalen Аудио 3: E-AC3+Atmos, 6 ch, 768 kbps - | Английский | | Original Формат субтитров: softsub (SRT)
[+] M/IGeneral Unique ID : 197379566587318638619356529430278058127 (0x947DEBF91F8D588063DD4B04C33E308F) Complete name : R:The.Marvels.WEB-DL.1080p.IMAX.x264.seleZen.mkv Format : Matroska Format version : Version 4 File size : 6.08 GiB Duration : 1 h 44 min Overall bit rate mode : Variable Overall bit rate : 8 326 kb/s Frame rate : 24.000 FPS Movie name : The.Marvels.WEB-DL.1080p.IMAX.x264.seleZen Encoded date : 2024-02-07 11:55:43 UTC Writing application : mkvmerge v82.0 ('I'm The President') 64-bit Writing library : libebml v1.4.5 + libmatroska v1.7.1 Cover : Yes Attachments : cover.jpg / small_cover.jpg Video ID : 1 Format : AVC Format/Info : Advanced Video Codec Format profile : High@L4 Format settings : CABAC / 4 Ref Frames Format settings, CABAC : Yes Format settings, Reference : 4 frames Codec ID : V_MPEG4/ISO/AVC Duration : 1 h 44 min Bit rate mode : Variable Bit rate : 6 467 kb/s Maximum bit rate : 12.7 Mb/s Width : 1 920 pixels Height : 1 080 pixels Display aspect ratio : 16:9 Frame rate mode : Constant Frame rate : 24.000 FPS Color space : YUV Chroma subsampling : 4:2:0 Bit depth : 8 bits Scan type : Progressive Bits/(Pixel*Frame) : 0.130 Time code of first frame : 00:00:00:00 Stream size : 4.73 GiB (78%) Title : -=DoMiNo=- Language : English Default : Yes Forced : No Color range : Limited Color primaries : BT.709 Transfer characteristics : BT.709 Matrix coefficients : BT.709 Audio #1 ID : 2 Format : AC-3 Format/Info : Audio Coding 3 Commercial name : Dolby Digital Codec ID : A_AC3 Duration : 1 h 44 min Bit rate mode : Constant Bit rate : 640 kb/s Channel(s) : 6 channels Channel layout : L R C LFE Ls Rs Sampling rate : 48.0 kHz Frame rate : 31.250 FPS (1536 SPF) Compression mode : Lossy Stream size : 479 MiB (8%) Title : Дубляж - Red Head Sound Language : Russian Service kind : Complete Main Default : Yes Forced : No Audio #2 ID : 3 Format : AC-3 Format/Info : Audio Coding 3 Commercial name : Dolby Digital Codec ID : A_AC3 Duration : 1 h 44 min Bit rate mode : Constant Bit rate : 448 kb/s Channel(s) : 6 channels Channel layout : L R C LFE Ls Rs Sampling rate : 48.0 kHz Frame rate : 31.250 FPS (1536 SPF) Compression mode : Lossy Stream size : 335 MiB (5%) Title : Дубляж - MovieDalen Language : Russian Service kind : Complete Main Default : No Forced : No Audio #3 ID : 4 Format : E-AC-3 JOC Format/Info : Enhanced AC-3 with Joint Object Coding Commercial name : Dolby Digital Plus with Dolby Atmos Codec ID : A_EAC3 Duration : 1 h 44 min Bit rate mode : Constant Bit rate : 768 kb/s Channel(s) : 6 channels Channel layout : L R C LFE Ls Rs Sampling rate : 48.0 kHz Frame rate : 31.250 FPS (1536 SPF) Compression mode : Lossy Stream size : 575 MiB (9%) Language : English Service kind : Complete Main Default : No Forced : No Complexity index : 16 Number of dynamic objects : 15 Bed channel count : 1 channel Bed channel configuration : LFE Text #1 ID : 5 Format : UTF-8 Codec ID : S_TEXT/UTF8 Codec ID/Info : UTF-8 Plain Text Duration : 1 h 33 min Bit rate : 1 b/s Frame rate : 0.004 FPS Count of elements : 21 Stream size : 829 Bytes (0%) Title : Forced Language : Russian Default : No Forced : No Text #2 ID : 6 Format : UTF-8 Codec ID : S_TEXT/UTF8 Codec ID/Info : UTF-8 Plain Text Duration : 1 h 42 min Bit rate : 76 b/s Frame rate : 0.200 FPS Count of elements : 1226 Stream size : 56.9 KiB (0%) Title : Full Language : Russian Default : No Forced : No Text #3 ID : 7 Format : UTF-8 Codec ID : S_TEXT/UTF8 Codec ID/Info : UTF-8 Plain Text Duration : 1 min 29 s Bit rate : 4 b/s Frame rate : 0.022 FPS Count of elements : 2 Stream size : 52.0 Bytes (0%) Title : Forced Language : English Default : No Forced : No Text #4 ID : 8 Format : UTF-8 Codec ID : S_TEXT/UTF8 Codec ID/Info : UTF-8 Plain Text Duration : 1 h 35 min Bit rate : 55 b/s Frame rate : 0.241 FPS Count of elements : 1373 Stream size : 38.7 KiB (0%) Language : English Default : No Forced : No Text #5 ID : 9 Format : UTF-8 Codec ID : S_TEXT/UTF8 Codec ID/Info : UTF-8 Plain Text Duration : 1 h 44 min Bit rate : 65 b/s Frame rate : 0.285 FPS Count of elements : 1788 Stream size : 50.0 KiB (0%) Title : SDH Language : English Default : No Forced : No Menu 00:14:04.588 : en:Scene 1 00:21:59.338 : en:Scene 2 00:35:47.380 : en:Scene 3 00:50:23.797 : en:Scene 4 00:58:48.547 : en:Scene 5 01:09:43.505 : en:Scene 6 01:14:25.297 : en:Scene 7 01:27:18.547 : en:Scene 8 01:33:06.588 : en:Credits 01:35:48.088 : en:Post-Credits Scene
Релиз: Присоединяйся к: Кликай на баннеры.

Всего файлов в раздаче: 1 
The.Marvels.WEB-DL.1080p.IMAX.x264.seleZen.mkv6.08 GB

Похожие раздачи по запросу - Капитан
2024-02-14 magnet Капитан Марвел 2 / The Marvels (2023) BDRip 1080p от Generalfilm | D 11.13 GB ↑ 0 ↓ 0
2024-02-14 magnet Капитан Марвел 2 / Марвели / The Marvels (2023) UHD BDRemux 2160p | 4K | HDR | D | UKR 42.06 GB ↑ 0 ↓ 0
2024-02-10 magnet Капитан Марвел 2 / Марвели / The Marvels (2023) BDRip 1080p | D | UKR 6.81 GB ↑ 0 ↓ 0
2024-02-09 magnet Капитан Марвел 2 / Марвели / The Marvels (2023) WEB-DL 1080p | D | IMAX | UKR 5.57 GB ↑ 0 ↓ 0
2024-02-08 magnet Капитан Марвел 2 / The Marvels (2023) WEB-DLRip-AVC от DoMiNo & селезень | D | MovieDalen, Red Head Sound | IMAX 2.07 GB ↑ 0 ↓ 0
2024-02-08 magnet Капитан Марвел 2 / The Marvels (2023) UHD BDRemux 2160p от селезень | 4K | HDR | D 42.58 GB ↑ 0 ↓ 0
2024-02-08 magnet Капитан Марвел 2 / The Marvels (2023) BDRemux 1080p от селезень | D 27.34 GB ↑ 0 ↓ 0

Комментарии


Зарегистрируйтесь чтобы добавить комментарий
Торрент клиент
byTorrent - программа для загрузки торрент-файлов.

Скачать byTorrent.exe (1,5 МБ)

Скачать byTorrent.zip (0,6 МБ)

Поддержи torrent.by
российских рублей
(300 российских рублей это 4$)

Обратная связь rss

End game ©