↑↓torrent.by
Поиск
Логин:  Регистрация
Пароль:

Рядовой Чээрин (2021) BDRip 1080p от MegaPeer | GER Transfer

download Скачать торрент-файл   magnet Магнитная ссылка Размер: 7.40 GB Добавлен: 2024-02-08 05:00
Пиры будут получены из сети DHT
Последний сидер был замечен 2024-02-21 16:31
Информация о фильме Название: Рядовой Чээрин Год выхода: 2021 Жанр: Военный, история, боевик, драма Режиссер: Дмитрий Кольцов В ролях: Айтал Степанов, Александр Казанцев, Даниил Журавлев, Дмитрий Кольцов, Павел Погодаев, Дмитрий Трофимов, Геннадий Куникеев, Вячеслав Юдин, Юрий Гаретовский, Дмитрий Варенов О фильме: Глубокая осень 1943 года. Немецкие снайперы хозяйничают на передовой. Молодой охотник Егор Чээрин, только прибывший на фронт, становится снайпером. В первом же бою ему удается проявить себя, он вступает в схватку с немецкими захватчиками и меняет баланс сил на передовой. Страна: Россия Студия: MAGDIS, Кинокомпания Сахафильм Продолжительность: 01:35:24 Перевод: Не требуется Файл Качество: BDRip 1080p Исходник: Siberian.Sniper.2021.MULTi.COMPLETE.BLURAY-SharpHD Формат: MKV Кодек: MPEG-4 AVC Видео: 1920x804 (2.40:1), 24 fps, MPEG-4 AVC ~ 9151 Kbps avg, 0.247 bit/pixel Аудио: DTS, 48 kHz, 2 ch, ~1509.00 kbps avg | русский | Blu-ray GER Аудио: AC3, 48 kHz, 6 ch, ~448.00 kbps avg | русский | Кинопоиск HD Субтитры: Русские (Forced)
[+] Инфо-файлОбщее Уникальный идентификатор : 233223337975735489739979615814256196755 (0xAF752E583A2EAF12BD8AADD41D647C93) Полное имя : Ryadovoj.Cheerin.2021.1080p.BluRay.DTS.2.0.x264-MegaPeer.mkv Формат : Matroska Версия формата : Version 4 Размер файла : 7,40 Гбайт Продолжительность : 1 ч. 35 м. Общий поток : 11,1 Мбит/сек Частота кадров : 24,000 кадра/сек Название фильма : Рядовой Чээрин (2021) от stillet@MegaPeer Дата кодирования : 2024-02-07 16:48:16 UTC Программа кодирования : mkvmerge v15.0.0 ('Duel with the Devil') 64-bit Библиотека кодирования : libebml v1.3.5 + libmatroska v1.4.5 Обложка : Yes Attachments : cover.jpg Видео Идентификатор : 1 Формат : AVC Формат/Информация : Advanced Video Codec Профиль формата : High@L4.1 Настройки формата : CABAC / 5 Ref Frames Параметр CABAC формата : Да Параметр RefFrames формата : 5 кадров Идентификатор кодека : V_MPEG4/ISO/AVC Продолжительность : 1 ч. 35 м. Битрейт : 9 151 Кбит/сек Ширина : 1 920 пикселей Высота : 804 пикселя Соотношение сторон : 2,40:1 Режим частоты кадров : Постоянный Частота кадров : 24,000 кадра/сек Цветовое пространство : YUV Субдискретизация насыщенности : 4:2:0 Битовая глубина : 8 бит Тип развёртки : Прогрессивная Бит/(Пиксели*Кадры) : 0.247 Размер потока : 6,10 Гбайт (82%) Библиотека кодирования : x264 core 164 r3156+57M stillet t_mod_New Настройки программы : cabac=1 / ref=5 / deblock=1:-3:-3 / analyse=0x3:0x113 / me=umh / subme=10 / psy=1 / fade_compensate=0.00 / psy_rd=1.03:0.02 / mixed_ref=1 / me_range=32 / chroma_me=1 / trellis=2 / 8x8dct=1 / cqm=0 / deadzone=21,11 / fast_pskip=0 / chroma_qp_offset=-3 / threads=12 / lookahead_threads=2 / sliced_threads=0 / nr=0 / decimate=0 / interlaced=0 / bluray_compat=0 / constrained_intra=0 / fgo=0 / bframes=9 / b_pyramid=2 / b_adapt=2 / b_bias=0 / direct=3 / weightb=1 / open_gop=0 / weightp=2 / keyint=240 / keyint_min=24 / scenecut=40 / intra_refresh=0 / rc_lookahead=40 / rc=2pass / mbtree=0 / bitrate=9151 / ratetol=1.0 / qcomp=0.60 / qpmin=0:0:0 / qpmax=69:69:69 / qpstep=4 / cplxblur=20.0 / qblur=0.5 / vbv_maxrate=50000 / vbv_bufsize=62500 / nal_hrd=none / filler=0 / ip_ratio=1.40 / pb_ratio=1.30 / aq=1:1.10 / aq-sensitivity=10.00 / aq-factor=1.00:1.00:1.00 / aq2=0 / aq3=0 Язык : German Default : Да Forced : Нет Аудио #1 Идентификатор : 2 Формат : DTS Формат/Информация : Digital Theater Systems Идентификатор кодека : A_DTS Продолжительность : 1 ч. 35 м. Вид битрейта : Постоянный Битрейт : 1 509 Кбит/сек Каналы : 2 канала Channel layout : Lt Rt Частота : 48,0 КГц Частота кадров : 93,750 кадра/сек (512 SPF) Битовая глубина : 24 бит Метод сжатия : С потерями Размер потока : 1,01 Гбайт (14%) Заголовок : Blu-ray GER Язык : Russian Default : Да Forced : Да Аудио #2 Идентификатор : 3 Формат : AC-3 Формат/Информация : Audio Coding 3 Коммерческое название : Dolby Digital Идентификатор кодека : A_AC3 Продолжительность : 1 ч. 35 м. Вид битрейта : Постоянный Битрейт : 448 Кбит/сек Каналы : 6 каналов Channel layout : L R C LFE Ls Rs Частота : 48,0 КГц Частота кадров : 31,250 кадров/сек (1536 SPF) Метод сжатия : С потерями Размер потока : 306 Мбайт (4%) Заголовок : Кинопоиск HD Язык : Russian Service kind : Complete Main Default : Нет Forced : Нет Текст Идентификатор : 4 Формат : UTF-8 Идентификатор кодека : S_TEXT/UTF8 Идентификатор кодека/Информация : UTF-8 Plain Text Продолжительность : 20 с. 74 мс. Битрейт : 290 бит/сек Частота кадров : 0,697 кадр/сек Count of elements : 14 Размер потока : 728 байт (0%) Заголовок : Forced Язык : Russian Default : Да Forced : Да Меню 00:00:00.000 : Chapter 01 00:13:37.000 : Chapter 02 00:27:34.000 : Chapter 03 00:41:20.000 : Chapter 04 00:55:28.000 : Chapter 05 01:09:48.000 : Chapter 06 01:30:42.000 : Chapter 07
Релиз:

Всего файлов в раздаче: 1 
Ryadovoj.Cheerin.2021.1080p.BluRay.DTS.2.0.x264-MegaPeer.mkv7.40 GB

Похожие раздачи по запросу - Рядовой
2024-02-15 magnet Рядовой Чээрин (2021) BDRemux 1080p | GER Transfer 13.36 GB ↑ 1 ↓ 0
2024-02-08 magnet Рядовой Чээрин (2021) BDRip от MegaPeer | GER Transfer 1К1.46 GB ↑ 1 ↓ 0

Комментарии


Зарегистрируйтесь чтобы добавить комментарий
Торрент клиент
byTorrent - программа для загрузки торрент-файлов.

Скачать byTorrent.exe (1,5 МБ)

Скачать byTorrent.zip (0,6 МБ)

Поддержи torrent.by
российских рублей
(300 российских рублей это 4$)

Обратная связь rss

End game ©