↑↓torrent.by
Поиск
Логин:  Регистрация
Пароль:

Вампиры / Vampires (1998) BDRip-HEVC 1080p от HEVC-CLUB | D, P, A

download Скачать торрент-файл   magnet Магнитная ссылка Размер: 7.70 GB Добавлен: 2024-02-08 11:00
Пиры будут получены из сети DHT
Последний сидер был замечен 2024-02-08 11:00
Информация о фильме Название: Вампиры Оригинальное название: Vampires Год выхода: 1998 Жанр: Ужасы, боевик, триллер Режиссер: Джон Карпентер В ролях: Джеймс Вудс, Дэниэл Болдуин, Шерил Ли, Томас Иэн Гриффит, Максимилиан Шелл, Тим Гини, Марк Бун Джуниор, Грегори Сьерра, Кэри-Хироюки Тагава, Томас Розалес мл., Генри Кинги, Дэвид Роуден, Кларк Коулмэн, Марк Сивертсен, Джон Фурлонг, Анджелина Торрес, Джимми Ортега, Гилберт Розалес, Даниэль Бургио, Лаура Кордова, Трой Робинсон, Анита Харт, Джон Касино, Чад Стахелски, Стив Блэлок, Марджин Холден, Крис Томас-Паломино, Джулия МакФеррин, Лори Диллен, Джэйк Уолкер, Майкл Хаддлстон, Тодд Андерсон, Люче Рэйнс, Дэннис Э. Гарбер, Роберт Льюис Буш, Фрэнк Дарабонт О фильме: По заданию Ватикана Джек Кроу, потомственный охотник на вампиров, и его друг, и напарник Монтойя безжалостно расправляются с вурдалаками, но их главная цель — особо опасный вампир Валек, уроженец Праги, 1300-го года рождения. В охоте на вампира Джеку и Монтойе помогает молодой священник, вооруженный знаниями из древних трактатов о кровососах. Валек ищет в Штатах древнее распятие, обладающее особой силой. Как известно, вампиры боятся солнечных лучей, убивающих их. Проведение магического обряда с распятием позволит Валеку не бояться солнечного света и сделает его всемогущим. Охотники за вампирами должны поспешить, пока Валек еще уязвим, пока его еще можно убить… Страна: США, Япония Студия: JVC Entertainment, Largo Entertainment, Spooky Tooth Productions, Storm King Productions Продолжительность: 01:47:47 Перевод: Дублированный, Профессиональный (многоголосый закадровый), Авторский (одноголосый закадровый) Файл Кодек: HEVC x265 10 bit Качество: BDRip-HEVC 1080p Видео: 1920x800, 8052 Кбит/сек, 0.218 бит/(Пиксели*Кадры), 24,000 кадр/сек, HEVC (Main10@L.4.1@High) 10 бит Звук: 1. Русский, AC3, 448 Кбит/сек, 5.1, 48,0 КГц - Дубляж 2. Русский, AC3, 448 Кбит/сек, 5.1, 48,0 КГц - Многоголосый закадровый 3. Русский, AC3, 640 Кбит/сек, 5.1, 48,0 КГц - Авторский, Ю.Живов 4. Английский, AC3, 640 Кбит/сек, 5.1, 48,0 КГц - Оригинал Субтитры: Русские, английские
[+] Mediainfox265 : frame I: 1483, Avg QP:17.33 kb/s: 26590.20 x265 : frame P: 31587, Avg QP:18.81 kb/s: 18080.43 x265 : frame B: 122140, Avg QP:21.12 kb/s: 5232.42 x265 : Weighted P-Frames: Y:10.6% UV:8.2% x265 : Weighted B-Frames: Y:6.5% UV:4.4% x265 : consecutive B-frames: 5.8% 2.1% 5.5% 43.2% 8.4% 24.8% 3.5% 6.6% 0.1% 0.0% 0.1% encoded 155210 frames in 181302.17s (0.86 fps), 8051.20 kb/s, Avg QP:20.62 Формат : Matroska Версия формата : Version 4 Размер файла : 7,70 Гбайт Продолжительность : 1 ч. 47 м. Общий поток : 10,2 Мбит/сек Название фильма : by Spartanec Дата кодирования : UTC 2021-05-22 18:15:52 Программа кодирования : mkvmerge v7.0.0 ('Where We Going') 64bit built on Jun 9 2014 15:16:27 Библиотека кодирования : libebml v1.3.0 + libmatroska v1.4.1 Обложка : Yes Attachments : cover.jpg Видео Идентификатор : 1 Формат : HEVC Формат/Информация : High Efficiency Video Coding Профиль формата : Main 10@L4.1@High Идентификатор кодека : V_MPEGH/ISO/HEVC Продолжительность : 1 ч. 47 м. Битрейт : 8052 Кбит/сек Ширина : 1920 пикселей Высота : 800 пикселей Соотношение сторон : 2,40:1 Режим частоты кадров : Постоянный Частота кадров : 24,000 кадра/сек Цветовое пространство : YUV Субдискретизация насыщенности : 4:2:0 Битовая глубина : 10 бит Бит/(Пиксели*Кадры) : 0.218 Размер потока : 6,06 Гбайт (79%) Заголовок : Spartanec Библиотека кодирования : x265 3.5+1-ce882936d: 10bit Настройки программы : cpuid=1111039 / frame-threads=4 / numa-pools=16 / wpp / no-pmode / no-pme / no-psnr / no-ssim / log-level=2 / input-csp=1 / input-res=1920x800 / interlace=0 / total-frames=155210 / level-idc=41 / high-tier=1 / uhd-bd=0 / ref=5 / no-allow-non-conformance / no-repeat-headers / annexb / no-aud / no-hrd / info / hash=0 / no-temporal-layers / open-gop / min-keyint=23 / keyint=240 / gop-lookahead=0 / bframes=10 / b-adapt=2 / b-pyramid / bframe-bias=0 / rc-lookahead=60 / lookahead-slices=1 / scenecut=40 / hist-scenecut=0 / radl=0 / no-splice / no-intra-refresh / ctu=32 / min-cu-size=8 / rect / amp / max-tu-size=32 / tu-inter-depth=4 / tu-intra-depth=4 / limit-tu=1 / rdoq-level=1 / dynamic-rd=0.00 / no-ssim-rd / signhide / no-tskip / nr-intra=0 / nr-inter=0 / no-constrained-intra / no-strong-intra-smoothing / max-merge=5 / limit-refs=0 / no-limit-modes / me=3 / subme=7 / merange=57 / temporal-mvp / no-frame-dup / no-hme / weightp / weightb / no-analyze-src-pics / deblock=-2:-2 / no-sao / no-sao-non-deblock / rd=6 / selective-sao=0 / no-early-skip / no-rskip / no-fast-intra / no-tskip-fast / no-cu-lossless / b-intra / no-splitrd-skip / rdpenalty=0 / psy-rd=2.00 / psy-rdoq=1.00 / no-rd-refine / no-lossless / cbqpoffs=0 / crqpoffs=0 / rc=crf / crf=20.1 / qcomp=0.70 / qpstep=4 / stats-write=0 / stats-read=0 / vbv-maxrate=50000 / vbv-bufsize=50000 / vbv-init=0.9 / min-vbv-fullness=50.0 / max-vbv-fullness=80.0 / crf-max=0.0 / crf-min=0.0 / ipratio=1.40 / pbratio=1.30 / aq-mode=2 / aq-strength=1.00 / no-cutree / zone-count=0 / no-strict-cbr / qg-size=32 / no-rc-grain / qpmax=69 / qpmin=0 / no-const-vbv / sar=1 / overscan=0 / videoformat=5 / range=0 / colorprim=1 / transfer=1 / colormatrix=1 / chromaloc=0 / display-window=0 / cll=0,0 / min-luma=0 / max-luma=1023 / log2-max-poc-lsb=8 / vui-timing-info / vui-hrd-info / slices=1 / no-opt-qp-pps / no-opt-ref-list-length-pps / no-multi-pass-opt-rps / scenecut-bias=0.05 / hist-threshold=0.03 / no-opt-cu-delta-qp / no-aq-motion / no-hdr10 / no-hdr10-opt / no-dhdr10-opt / no-idr-recovery-sei / analysis-reuse-level=0 / analysis-save-reuse-level=0 / analysis-load-reuse-level=0 / scale-factor=0 / refine-intra=0 / refine-inter=0 / refine-mv=0 / refine-ctu-distortion=0 / no-limit-sao / ctu-info=0 / no-lowpass-dct / refine-analysis-type=0 / copy-pic=1 / max-ausize-factor=1.0 / no-dynamic-refine / no-single-sei / no-hevc-aq / no-svt / no-field / qp-adaptation-range=1.00 / scenecut-aware-qp=0conformance-window-offsets / right=0 / bottom=0 / decoder-max-rate=0 / no-vbv-live-multi-pass Default : Да Forced : Нет Цветовой диапазон : Limited Основные цвета : BT.709 Характеристики трансфера : BT.709 Коэффициенты матрицы : BT.709 Аудио #1 Идентификатор : 4 Формат : AC-3 Формат/Информация : Audio Coding 3 Коммерческое название : Dolby Digital Идентификатор кодека : A_AC3 Продолжительность : 1 ч. 47 м. Вид битрейта : Постоянный Битрейт : 448 Кбит/сек Каналы : 6 каналов ChannelLayout : L R C LFE Ls Rs Частота : 48,0 КГц Частота кадров : 31,250 кадров/сек (1536 SPF) Битовая глубина : 16 бит Метод сжатия : С потерями Размер потока : 345 Мбайт (4%) Заголовок : Дубляж ServiceKind/ : Complete Main Default : Да Forced : Нет Аудио #2 Идентификатор : 5 Формат : AC-3 Формат/Информация : Audio Coding 3 Коммерческое название : Dolby Digital Идентификатор кодека : A_AC3 Продолжительность : 1 ч. 47 м. Вид битрейта : Постоянный Битрейт : 448 Кбит/сек Каналы : 6 каналов ChannelLayout : L R C LFE Ls Rs Частота : 48,0 КГц Частота кадров : 31,250 кадров/сек (1536 SPF) Битовая глубина : 16 бит Метод сжатия : С потерями Размер потока : 345 Мбайт (4%) Заголовок : Многоголосый ServiceKind/ : Complete Main Default : Нет Forced : Нет Аудио #3 Идентификатор : 6 Формат : AC-3 Формат/Информация : Audio Coding 3 Коммерческое название : Dolby Digital Идентификатор кодека : A_AC3 Продолжительность : 1 ч. 47 м. Вид битрейта : Постоянный Битрейт : 640 Кбит/сек Каналы : 6 каналов ChannelLayout : L R C LFE Ls Rs Частота : 48,0 КГц Частота кадров : 31,250 кадров/сек (1536 SPF) Битовая глубина : 16 бит Метод сжатия : С потерями Размер потока : 493 Мбайт (6%) Заголовок : Авторский Гаврилов ServiceKind/ : Complete Main Default : Нет Forced : Нет Аудио #4 Идентификатор : 7 Формат : AC-3 Формат/Информация : Audio Coding 3 Коммерческое название : Dolby Digital Идентификатор кодека : A_AC3 Продолжительность : 1 ч. 47 м. Вид битрейта : Постоянный Битрейт : 640 Кбит/сек Каналы : 6 каналов ChannelLayout : L R C LFE Ls Rs Частота : 48,0 КГц Частота кадров : 31,250 кадров/сек (1536 SPF) Битовая глубина : 16 бит Метод сжатия : С потерями Размер потока : 493 Мбайт (6%) ServiceKind/ : Complete Main Default : Нет Forced : Нет Текст #1 Идентификатор : 2 Формат : UTF-8 Идентификатор кодека : S_TEXT/UTF8 Идентификатор кодека/Информация : UTF-8 Plain Text Продолжительность : 1 ч. 41 м. Битрейт : 63 бит/сек ElementCount : 788 Размер потока : 47,1 Кбайт (0%) Default : Да Forced : Нет Текст #2 Идентификатор : 3 Формат : UTF-8 Идентификатор кодека : S_TEXT/UTF8 Идентификатор кодека/Информация : UTF-8 Plain Text Продолжительность : 1 ч. 41 м. Битрейт : 38 бит/сек ElementCount : 964 Размер потока : 28,4 Кбайт (0%) Default : Нет Forced : Нет
[+] Скриншоты
Релиз от: Spartanec

Всего файлов в раздаче: 1 
Вампиры (1998) BDRip 1080p [HEVC] 10 bit by Spartanec.mkv7.70 GB

Похожие раздачи по запросу - Вампиры
2024-02-08 magnet Вампиры / Vampires (1998) BDRip 1080p от HDReactor | D, P, A | UK Transfer 2К15.52 GB ↑ 0 ↓ 0
2024-02-07 magnet Вампиры / Vampires (1998) HDRip-AVC от ExKinoRay | D 1К745.95 MB ↑ 0 ↓ 0
2021-12-31 magnet Вампиры средней полосы. Новогодняя серия (2021) WEBRip-AVC от Files-x 830.05 MB ↑ 0 ↓ 0

Комментарии


Зарегистрируйтесь чтобы добавить комментарий
Торрент клиент
byTorrent - программа для загрузки торрент-файлов.

Скачать byTorrent.exe (1,5 МБ)

Скачать byTorrent.zip (0,6 МБ)

Поддержи torrent.by
российских рублей
(300 российских рублей это 4$)

Обратная связь rss

End game ©