↑↓torrent.by
Поиск
Логин:  Регистрация
Пароль:

Кто угодно, кроме тебя / Anyone But You (2023) WEB-DLRip от New-Team | P

download Скачать торрент-файл   magnet Магнитная ссылка Размер: 1.46 GB Добавлен: 2024-02-08 11:00
Пиры будут получены из сети DHT
Последний сидер был замечен сегодня в 00:44
Кто угодно, кроме тебя / Anyone But You Год выпуска: 2023 Выпущено: США, Австралия, Fifty-Fifty Films, Olive Bridge Entertainment, Roth/Kirschenbaum Films Жанр: мелодрама, комедия Режиссер: Уилл Глак / Will Gluck В ролях: Сидни Суини, Глен Пауэлл, Александра Шипп, Даррен Барнет, Брайан Браун, Джо Дэвидсон, Гата, Рэйчел Гриффитс, Мишель Херд, Дермот Малруни, Хэдли Робинсон О фильме: После первого свидания взаимная симпатия между Би и Беном быстро перерастает в ненависть. Однако, оказавшись гостями на свадьбе, они решают притвориться парой. Продолжительность: 01:43:29 Перевод: Профессиональный (многоголосый закадровый) | Лицензия Субтитры: Нет. Раздача от: Автор релиза: JNS82. Формат: AVI Качество: WEB-DLRip Видео: 720x304 (2.35:1), 23.976 fps, XviD MPEG-4 ~ 1631 kbps avg, 0.311 bit/pixel, build 73 Аудио: 48 kHz, AC3 Dolby Digital, 3/2 (L,C,R,l,r) + LFE ch, ~ 384 kbps | RUS |
[+] MediaInfoОбщее Полное имя : D:TorrentsAnyone.But.You.2023.WEB-DLRip_от New-Team_by_JNS82.avi Формат : AVI Формат/Информация : Audio Video Interleave Размер файла : 1,46 Гбайт Продолжительность : 1 ч. 43 м. Общий поток : 2 024 Кбит/сек Программа кодирования : VirtualDubMod 1.5.10.2 (build 2540/release) Библиотека кодирования : VirtualDubMod build 2540/release Видео Идентификатор : 0 Формат : MPEG-4 Visual Профиль формата : Advanced Simple@L5 Настройки формата : BVOP1 / Custom Matrix Параметр BVOP формата : 1 Параметр QPel формата : Нет Параметр GMC формата : Без точки перехода Параметр матрицы формата : Выборочная Идентификатор кодека : XVID Идентификатор кодека/Подсказка : XviD Продолжительность : 1 ч. 43 м. Битрейт : 1 631 Кбит/сек Ширина : 720 пикселей Высота : 304 пикселя Соотношение сторон : 2,35:1 Частота кадров : 23,976 (24000/1001) кадра/сек Цветовое пространство : YUV Субдискретизация насыщенности : 4:2:0 Битовая глубина : 8 бит Тип развёртки : Прогрессивная Метод сжатия : С потерями Бит/(Пиксели*Кадры) : 0.311 Размер потока : 1,18 Гбайт (81%) Библиотека кодирования : XviD 73 Аудио Идентификатор : 1 Формат : AC-3 Формат/Информация : Audio Coding 3 Коммерческое название : Dolby Digital Идентификатор кодека : 2000 Продолжительность : 1 ч. 43 м. Вид битрейта : Постоянный Битрейт : 384 Кбит/сек Каналы : 6 каналов Channel layout : L R C LFE Ls Rs Частота : 48,0 КГц Частота кадров : 31,250 кадров/сек (1536 SPF) Метод сжатия : С потерями Размер потока : 284 Мбайт (19%) Выравнивание : Разделение по промежуткам Продолжительность промежутка : 42 мс. (1,00 видеокадр) Время предзагрузки промежутка : 500 мс. Service kind : Complete Main

Всего файлов в раздаче: 1 
Anyone.But.You.2023.WEB-DLRip_от New-Team_by_JNS82.avi1.46 GB

Похожие раздачи по запросу - Кто
Сегодня magnet Угадай, кто? / Guess Who (2024) WEB-DL 720p | L1 1.61 GB ↑ 0 ↓ 0
2024-02-15 magnet Тот, кто смотрит / Stranger in the Woods (2024) WEB-DLRip-AVC от DoMiNo & селезень | D 1.15 GB ↑ 0 ↓ 0
2024-02-15 magnet Тот, кто смотрит / Stranger in the Woods (2024) WEB-DL 1080p от селезень | D 3.17 GB ↑ 0 ↓ 0
2024-02-15 magnet Тот, кто смотрит / Stranger in the Woods (2024) UHD WEB-DL-HEVC 2160p от селезень | 4K | SDR | D 6.93 GB ↑ 0 ↓ 0
2024-02-15 magnet Тот, кто смотрит / Stranger in the Woods (2024) WEB-DLRip от ELEKTRI4KA | D 1.37 GB ↑ 0 ↓ 0
2024-02-10 magnet Кто угодно, кроме тебя / Anyone But You (2023) WEB-DLRip-AVC | КПК | P 493.50 MB ↑ 1 ↓ 0
2024-02-08 magnet Кто угодно, кроме тебя / Anyone But You (2023) WEB-DLRip 720p от DoMiNo & селезень | P 2.68 GB ↑ 1 ↓ 0

Комментарии


Зарегистрируйтесь чтобы добавить комментарий
Торрент клиент
byTorrent - программа для загрузки торрент-файлов.

Скачать byTorrent.exe (1,5 МБ)

Скачать byTorrent.zip (0,6 МБ)

Поддержи torrent.by
российских рублей
(300 российских рублей это 4$)

Обратная связь rss

End game ©