↑↓torrent.by
Поиск
Логин:  Регистрация
Пароль:

Простоквашино [05x01-10 из 26] (2023) WEB-DLRip 720p от DoMiNo

download Скачать торрент-файл   magnet Магнитная ссылка Размер: 1.03 GB Добавлен: 2024-02-08 11:00
Пиры будут получены из сети DHT
Последний сидер был замечен 2024-02-08 21:03
Информация о фильме Название: Простоквашино Год выхода: 2023 Жанр: Мультфильм, семейный Режиссёры: Михаил Солошенко, Евгения Жиркова, Анна Кузина, Софья Кравцова, Анастасия Воронина, Иван Шпульников, Владимир Торопчин, Светлана Мардаголимова, Юлия Байгулова, Алексей Введенский, Ринат Газизов, Савва Голубков, Александра Евсеева, Мария Чайка, Софья Сильвестрова, Павел Финоженков, Анастасия Савкина Роли озвучивали: Антон Табаков, Гарик Сукачев, Павел Деревянко, Никита Волков, Алексей Онежен, Мигель Родригез, Энджел Жуков, Иван Охлобыстин, Юлия Меньшова, Андрей Тенетко, Ольга Голованова, Беата Сухова, Лев Кузин, Татьяна Васильева, Александр Плющев, Михаил Солошенко, Николай Дроздов, Александр Гудков, Дмитрий Оленин, Юлия Яблонская, Елизавета Бугулова, Елена Шульман, Диомид Виноградов, Виктор Гусев, Сергей Жуков, Людмила Чеботина О фильме: Продолжение мультипликационного советского хита о приключениях Дяди Федора. Казалось, никакие бури внешнего мира не смогут поколебать привычный и размеренный ход деревенской жизни Простоквашино. Время как будто застыло. Все так же каждое утро Матроскин дегустирует свежее молоко, полученное от своей любимицы - коровы Мурки. Все так же Шарик проводит время в окрестных лесах, «фотоохотясь» на редкую дичь. Правда, теперь он научился выкладывать фотографии своей добычи в интернет. И все так же, при каждой возможности, их навещает Дядя Федор. И тогда они весело и дружно проводят время своей мужской компанией. И когда им уже стало казаться, что так будет всегда, внезапно все изменилось с появлением одной маленькой девочки, родной сестры Дяди Фёдора. И имя этой девочки – Вера Павловна. Страна: Россия Продолжительность: ~00:06:30 серия Перевод: Не требуется Файл Формат: MKV Качество: WEB-DLRip 720p Видео: High@L4.1, ~2000 Кбит/с, 1280x720 Аудио: 48 kHz, AC3 Dolby Digital, 2/0 (L,R) ch, ~192 kbps Субтитры: отсутствуют ***Релиз от: -=DoMiNo=-.
[+] Список серий:1. Курорт 2. Круглая Земля 3. Шарик в космосе 4. Музыкальный вызов 5. Блуждающие огоньки 6. Граф Печкин 7. Умный шлем 8. Машина времени 9. Кризис среднего возраста 10. Морская дуэль
[+] M/I frame I:104 Avg QP:10.56 size:100754 frame P:2861 Avg QP:13.57 size: 21516 frame B:7154 Avg QP:16.40 size: 3507 General Complete name : E:01 – Курорт_WEB_DLRIP.720p_.mkv Format : Matroska Format version : Version 4 File size : 104 MiB Duration : 6 min 36 s Overall bit rate : 2 192 kb/s Frame rate : 25.000 FPS Writing application : Lavf Writing library : Lavf Copyright : -=DoMiNo=- ErrorDetectionType : Per level 1 Attachments : poster.jpg / poster.jpg Language : und Video ID : 1 Format : AVC Format/Info : Advanced Video Codec Format profile : High@L4.1 Format settings : CABAC / 9 Ref Frames Format settings, CABAC : Yes Format settings, Reference : 9 frames Codec ID : V_MPEG4/ISO/AVC Duration : 6 min 36 s Bit rate : 2 000 kb/s Width : 1 280 pixels Height : 720 pixels Display aspect ratio : 16:9 Frame rate mode : Constant Frame rate : 25.000 FPS Color space : YUV Chroma subsampling : 4:2:0 Bit depth : 8 bits Scan type : Progressive Bits/(Pixel*Frame) : 0.087 Stream size : 92.5 MiB (89%) Writing library : x264 core 164 r3095 baee400 Encoding settings : cabac=1 / ref=9 / deblock=1:-1:-1 / analyse=0x3:0x133 / me=umh / subme=10 / psy=1 / psy_rd=1.05:0.15 / mixed_ref=1 / me_range=32 / chroma_me=1 / trellis=2 / 8x8dct=1 / cqm=0 / deadzone=21,11 / fast_pskip=0 / chroma_qp_offset=-3 / threads=17 / lookahead_threads=2 / sliced_threads=0 / nr=0 / decimate=0 / interlaced=0 / bluray_compat=0 / constrained_intra=0 / bframes=9 / b_pyramid=2 / b_adapt=2 / b_bias=0 / direct=3 / weightb=1 / open_gop=0 / weightp=2 / keyint=250 / keyint_min=25 / scenecut=40 / intra_refresh=0 / rc_lookahead=80 / rc=2pass / mbtree=0 / bitrate=2000 / ratetol=1.0 / qcomp=0.70 / qpmin=0 / qpmax=69 / qpstep=4 / cplxblur=20.0 / qblur=0.5 / vbv_maxrate=50000 / vbv_bufsize=62500 / nal_hrd=none / filler=0 / ip_ratio=1.40 / pb_ratio=1.30 / aq=1:0.90 Language : Russian Default : Yes Forced : No Audio ID : 2 Format : AC-3 Format/Info : Audio Coding 3 Commercial name : Dolby Digital Codec ID : A_AC3 Duration : 6 min 36 s Bit rate mode : Constant Bit rate : 192 kb/s Channel(s) : 2 channels Channel layout : L R Sampling rate : 48.0 kHz Frame rate : 31.250 FPS (1536 SPF) Bit depth : 32 bits Compression mode : Lossy Stream size : 9.08 MiB (9%) Language : Russian Service kind : Complete Main Default : Yes Forced : No

Всего файлов в раздаче: 10 
01 – Курорт_WEB_DLRIP.720p_[-=DoMiNo=-].mkv103.69 MB
02 – Круглая Земля_WEB_DLRIP.720p_[-=DoMiNo=-].mkv106.36 MB
03 – Шарик в космосе_WEB_DLRIP.720p_[-=DoMiNo=-].mkv105.95 MB
04 – Музыкальный вызов_WEB_DLRIP.720p_[-=DoMiNo=-].mkv105.90 MB
05 – Блуждающие огоньки_WEB_DLRIP.720p_[-=DoMiNo=-].mkv106.16 MB
06 – Граф Печкин_WEB_DLRIP.720p_[-=DoMiNo=-].mkv106.28 MB
07-Умный шлем_WEB_DLRIP.720p_[-=DoMiNo=-].mkv105.93 MB
08-Машина времени_WEB_DLRIP.720p_[-=DoMiNo=-].mkv106.26 MB
09-Кризис среднего роста_WEB_DLRIP.720p_[-=DoMiNo=-].mkv104.81 MB
10-Морская дуэль_WEB_DLRIP.720p_[-=DoMiNo=-].mkv102.64 MB

Похожие раздачи по запросу - Простоквашино
2023-07-10 magnet Простоквашино [01-04x01-102 из 106 + Бонусы] (2018-2023) WEB-DLRip 720p от DoMiNo 12.73 GB ↑ 0 ↓ 0
2021-09-05 magnet Простоквашино [01-03x01-55 из 82] (2018-2021) WEB-DLRip 720p 6.96 GB ↑ 0 ↓ 0

Комментарии


Зарегистрируйтесь чтобы добавить комментарий
Торрент клиент
byTorrent - программа для загрузки торрент-файлов.

Скачать byTorrent.exe (1,5 МБ)

Скачать byTorrent.zip (0,6 МБ)

Поддержи torrent.by
российских рублей
(300 российских рублей это 4$)

Обратная связь rss

End game ©