↑↓torrent.by
Поиск
Логин:  Регистрация
Пароль:

Капитан Марвел 2 / The Marvels (2023) WEB-DLRip-AVC от DoMiNo & селезень | D | MovieDalen, Red Head Sound | IMAX

download Скачать торрент-файл   magnet Магнитная ссылка Размер: 2.07 GB Добавлен: 2024-02-08 11:00
Пиры будут получены из сети DHT
Последний сидер был замечен 2024-02-09 21:37
Информация о фильме Название: Капитан Марвел 2 Оригинальное название: The Marvels Год выпуска: 2023 Жанр: фэнтези, боевик, приключения Режиссер: Ниа ДаКоста В ролях:Бри Ларсон, Тейона Паррис, Иман Веллани, Сэмюэл Л. Джексон, Зави Эштон, Гари Льюис, Пак Со-джун, Зенобия Шрофф, Мохан Капур, Саагар Шайх Описание: Кэрол Дэнверс обретает свою утраченную личность, отнятую тиранами Крии, и мстит Высшему Разуму. Однако, непредвиденные последствия приводят к тому, что Кэрол взваливает на свои плечи бремя дестабилизированной вселенной. Когда она проходит через червоточину, которая должна вывести её на революционера из числа Крии, её силы переплетаются со способностями суперфанатки из Джерси-Сити, Камалы Хан, известной как Мисс Марвел, а также с племянницей Кэрол, Моникой Рамбо (агентом организации «М. Е. Ч.»). Они должны объединиться и научиться действовать сообща, чтобы спасти вселенную. Выпущено: США, Marvel Studios Inc. Продолжительность: 01:44:38 Перевод 1: Дублированный (неофициальный) | Red Head Sound Перевод 2: Профессиональный (полное дублирование) | MovieDalen Субтитры: Русские (Forced, full) Файл Формат: Matroska Качество: WEB-DLRip-AVC | IMAX Видео: 1024x540 at 24.000 fps, x264@L4.1, ~1931 kbps Аудио 1: AC3, 6 ch, ~448 kbps - | Русский | | Red Head Sound Аудио 2: AC3, 6 ch, ~448 kbps - | Русский | | MovieDalen Формат субтитров: softsub (SRT)
[+] M/IGeneral Unique ID : 144853571089160498713575529293581809715 (0x6CF9C8736C19524E5F86BAA02E8A7833) Complete name : O:The.Marvels.2023.2xDUB.IMAX.WEB-DLRip.x264.seleZen.mkv Format : Matroska Format version : Version 4 File size : 2.07 GiB Duration : 1 h 44 min Overall bit rate : 2 829 kb/s Frame rate : 24.000 FPS Movie name : The.Marvels.2023.2xDUB.IMAX.WEB-DLRip.x264.seleZen Encoded date : 2024-02-07 13:41:24 UTC Writing application : mkvmerge v82.0 ('I'm The President') 64-bit Writing library : libebml v1.4.5 + libmatroska v1.7.1 Cover : Yes Attachments : cover.jpg / small_cover.jpg Video ID : 1 Format : AVC Format/Info : Advanced Video Codec Format profile : High@L4.1 Format settings : CABAC / 14 Ref Frames Format settings, CABAC : Yes Format settings, Reference : 14 frames Codec ID : V_MPEG4/ISO/AVC Duration : 1 h 44 min Bit rate : 1 931 kb/s Width : 1 024 pixels Height : 540 pixels Display aspect ratio : 1.896 Frame rate mode : Constant Frame rate : 24.000 FPS Color space : YUV Chroma subsampling : 4:2:0 Bit depth : 8 bits Scan type : Progressive Bits/(Pixel*Frame) : 0.145 Stream size : 1.41 GiB (68%) Title : -=DoMiNo=- Writing library : x264 core 164 r3173 -DoMiNo Encoding settings : cabac=1 / ref=14 / deblock=1:-1:-1 / analyse=0x3:0x133 / me=umh / subme=10 / psy=1 / psy_rd=1.00:0.15 / mixed_ref=1 / me_range=32 / chroma_me=1 / trellis=2 / 8x8dct=1 / cqm=0 / deadzone=21,11 / fast_pskip=0 / chroma_qp_offset=-3 / threads=17 / lookahead_threads=4 / sliced_threads=0 / nr=0 / decimate=0 / interlaced=0 / bluray_compat=0 / constrained_intra=0 / bframes=10 / b_pyramid=2 / b_adapt=2 / b_bias=0 / direct=1 / weightb=1 / open_gop=0 / weightp=2 / keyint=250 / keyint_min=24 / scenecut=40 / intra_refresh=0 / rc_lookahead=60 / rc=crf / mbtree=0 / crf=18.5 / qcomp=0.60 / qpmin=0 / qpmax=69 / qpstep=4 / vbv_maxrate=50000 / vbv_bufsize=62500 / crf_max=0.0 / nal_hrd=none / filler=0 / ip_ratio=1.40 / pb_ratio=1.30 / aq=2:0.90 Language : English Default : Yes Forced : No Color range : Limited Color primaries : BT.709 Transfer characteristics : BT.709 Matrix coefficients : BT.709 Audio #1 ID : 2 Format : AC-3 Format/Info : Audio Coding 3 Commercial name : Dolby Digital Codec ID : A_AC3 Duration : 1 h 44 min Bit rate mode : Constant Bit rate : 448 kb/s Channel(s) : 6 channels Channel layout : L R C LFE Ls Rs Sampling rate : 48.0 kHz Frame rate : 31.250 FPS (1536 SPF) Compression mode : Lossy Stream size : 335 MiB (16%) Title : Дубляж - Red Head Sound Language : Russian Service kind : Complete Main Default : Yes Forced : No Audio #2 ID : 3 Format : AC-3 Format/Info : Audio Coding 3 Commercial name : Dolby Digital Codec ID : A_AC3 Duration : 1 h 44 min Bit rate mode : Constant Bit rate : 448 kb/s Channel(s) : 6 channels Channel layout : L R C LFE Ls Rs Sampling rate : 48.0 kHz Frame rate : 31.250 FPS (1536 SPF) Compression mode : Lossy Stream size : 335 MiB (16%) Title : Дубляж - MovieDalen Language : Russian Service kind : Complete Main Default : No Forced : No Text #1 ID : 4 Format : UTF-8 Codec ID : S_TEXT/UTF8 Codec ID/Info : UTF-8 Plain Text Duration : 1 h 33 min Bit rate : 1 b/s Frame rate : 0.004 FPS Count of elements : 21 Stream size : 829 Bytes (0%) Title : Forced Language : Russian Default : No Forced : No Text #2 ID : 5 Format : UTF-8 Codec ID : S_TEXT/UTF8 Codec ID/Info : UTF-8 Plain Text Duration : 1 h 42 min Bit rate : 76 b/s Frame rate : 0.200 FPS Count of elements : 1226 Stream size : 56.9 KiB (0%) Title : Full Language : Russian Default : No Forced : No Menu 00:00:00.000 : en:Глава 01 00:05:50.000 : en:Глава 02 00:11:40.000 : en:Глава 03 00:17:30.000 : en:Глава 04 00:23:20.000 : en:Глава 05 00:29:10.000 : en:Глава 06 00:35:00.000 : en:Глава 07 00:40:50.000 : en:Глава 08 00:46:40.000 : en:Глава 09 00:52:30.000 : en:Глава 10 00:58:20.000 : en:Глава 11 01:04:10.000 : en:Глава 12 01:10:00.000 : en:Глава 13 01:15:50.000 : en:Глава 14 01:21:40.000 : en:Глава 15 01:27:30.000 : en:Глава 16 01:33:20.000 : en:Глава 17 01:39:10.000 : en:Глава 18
Релиз: Присоединяйся к: Кликай на баннеры.

Всего файлов в раздаче: 1 
The.Marvels.2023.2xDUB.IMAX.WEB-DLRip.x264.seleZen.mkv2.07 GB

Похожие раздачи по запросу - Капитан
2024-02-14 magnet Капитан Марвел 2 / The Marvels (2023) BDRip 1080p от Generalfilm | D 11.13 GB ↑ 0 ↓ 1
2024-02-14 magnet Капитан Марвел 2 / Марвели / The Marvels (2023) UHD BDRemux 2160p | 4K | HDR | D | UKR 42.06 GB ↑ 0 ↓ 0
2024-02-10 magnet Капитан Марвел 2 / Марвели / The Marvels (2023) BDRip 1080p | D | UKR 6.81 GB ↑ 0 ↓ 0
2024-02-09 magnet Капитан Марвел 2 / Марвели / The Marvels (2023) WEB-DL 1080p | D | IMAX | UKR 5.57 GB ↑ 0 ↓ 0
2024-02-08 magnet Капитан Марвел 2 / The Marvels (2023) UHD BDRemux 2160p от селезень | 4K | HDR | D 42.58 GB ↑ 0 ↓ 1
2024-02-08 magnet Капитан Марвел 2 / The Marvels (2023) BDRemux 1080p от селезень | D 27.34 GB ↑ 0 ↓ 0
2024-02-08 magnet Капитан Марвел 2 / The Marvels (2023) WEB-DL 1080p от селезень | D | MovieDalen, Red Head Sound | IMAX 6.08 GB ↑ 0 ↓ 0

Комментарии


Зарегистрируйтесь чтобы добавить комментарий
Торрент клиент
byTorrent - программа для загрузки торрент-файлов.

Скачать byTorrent.exe (1,5 МБ)

Скачать byTorrent.zip (0,6 МБ)

Поддержи torrent.by
российских рублей
(300 российских рублей это 4$)

Обратная связь rss

End game ©