↑↓torrent.by
Поиск
Логин:  Регистрация
Пароль:

Медиатор [03х01-06 из 08] (2024) WEBRip

download Скачать торрент-файл   magnet Магнитная ссылка Размер: 4.03 GB Добавлен: 2024-02-08 11:00
Пиры будут получены из сети DHT
Последний сидер был замечен 2024-02-16 20:23
Оригинальное название: Медиатор Год выпуска: 2024 Жанр: Драма, триллер Выпущено: Россия, START Studio, Профит Режиссер: Артём Аксененко В ролях: Андрей Бурковский, Ирина Старшенбаум, Анна Каменкова, Софья Лебедева, Владислав Ценёв, Елизавета Гончаренко, Кристина Корбут, Элизабет-Александра Дамскер, Павел Савинков, Наташа Швец (II), Алексей Гришин, Кристина Ра, Ольга Родина, Виктория Клинкова О сериале: В третьем сезоне профессиональный переговорщик Андрей Павлов - резкий человек, инструментарием которого всегда были психологические провокации, - переосмысливает свои убеждения, оказавшись жертвой социальной травли. И пока Павлов пытается договориться с самим собой, за помощью к медиатору обращается следователь Женя. В городе пропадают люди, зверски убиты уже несколько девушек. Следы ведут к Степному Волку, возглавившему некую секту «бегунов». Файл Формат: AVI Качество: WEBRip Видео: XviD, ~ 1650 Кбит/с, 720x304 Аудио: AC3, 2 ch, 256 Кбит/с Продолжительность: ~ 00:45:00 Язык: Русский Субтитры: Русские (SDH) Для слабослышащих
[+] MediaInfo:Общее Полное имя : Mediator.S03.E01.2023.WEB-DLRip.DenSBK.avi Формат : AVI Формат/Информация : Audio Video Interleave Настройки формата : BitmapInfoHeader / WaveFormatEx Размер файла : 731 Мбайт Продолжительность : 53 м. 20 с. Общий поток : 1 917 Кбит/сек Частота кадров : 25,000 кадров/сек Программа кодирования : VirtualDubMod 1.5.10.3 | www.virtualdub-fr.org || (build 2550/release) Библиотека кодирования : VirtualDubMod build 2550/release Видео Идентификатор : 0 Формат : MPEG-4 Visual Профиль формата : Advanced Simple@L5 Настройки формата : BVOP1 / Custom Matrix Параметр BVOP формата : 1 Параметр QPel формата : Нет Параметр GMC формата : Без точки перехода Параметр матрицы формата : Выборочная Идентификатор кодека : XVID Идентификатор кодека/Подсказка : XviD Продолжительность : 53 м. 20 с. Битрейт : 1 651 Кбит/сек Ширина : 720 пикселей Высота : 304 пикселя Соотношение сторон : 2,35:1 Частота кадров : 25,000 кадров/сек Цветовое пространство : YUV Субдискретизация насыщенности : 4:2:0 Битовая глубина : 8 бит Тип развёртки : Прогрессивная Метод сжатия : С потерями Бит/(Пиксели*Кадры) : 0.302 Размер потока : 630 Мбайт (86%) Библиотека кодирования : XviD 73 Аудио Идентификатор : 1 Формат : AC-3 Формат/Информация : Audio Coding 3 Коммерческое название : Dolby Digital Идентификатор кодека : 2000 Продолжительность : 53 м. 20 с. Вид битрейта : Постоянный Битрейт : 256 Кбит/сек Каналы : 2 канала Channel layout : L R Частота : 48,0 КГц Частота кадров : 31,250 кадров/сек (1536 SPF) Метод сжатия : С потерями Размер потока : 97,7 Мбайт (13%) Выравнивание : Разделение по промежуткам Продолжительность промежутка : 40 мс. (1,00 видеокадр) Время предзагрузки промежутка : 500 мс. Service kind : Complete Main
[+] Скриншоты

Всего файлов в раздаче: 12 
Mediator.S03.E01.2023.WEB-DLRip.DenSBK.avi731.16 MB
Mediator.S03.E01.2023.WEB-DLRip.DenSBK.srt60.02 kB
Mediator.S03.E02.2023.WEB-DLRip.DenSBK.avi590.71 MB
Mediator.S03.E02.2023.WEB-DLRip.DenSBK.srt50.98 kB
Mediator.S03.E03.2023.WEB-DLRip.DenSBK.avi838.97 MB
Mediator.S03.E03.2023.WEB-DLRip.DenSBK.srt62.91 kB
Mediator.S03.E04.2023.WEB-DLRip.DenSBK.avi616.38 MB
Mediator.S03.E04.2023.WEB-DLRip.DenSBK.srt55.56 kB
Mediator.S03.E05.2023.WEB-DLRip.DenSBK.avi684.10 MB
Mediator.S03.E05.2023.WEB-DLRip.DenSBK.srt57.18 kB
Показать все файлы

Похожие раздачи по запросу - Медиатор
2024-02-25 magnet Медиатор [S03] (2024) WEB-DLRip-AVC от Generalfilm | КПК 1.76 GB ↑ 0 ↓ 0
2024-02-22 magnet Медиатор [S03] (2024) WEBRip 5.26 GB ↑ 2 ↓ 0
2024-02-22 magnet Медиатор [S03] (2024) WEB-DL 1080p от ExKinoRay 1К9.61 GB ↑ 0 ↓ 0
2024-02-22 magnet Медиатор [S03] (2024) WEB-DLRip-AVC от Files-x 1К4.98 GB ↑ 0 ↓ 0
2024-02-22 magnet Медиатор [S03] (2024) WEB-DL 720p от ExKinoRay 6.56 GB ↑ 0 ↓ 0
2024-02-15 magnet Медиатор [03х01-07 из 08] (2024) WEBRip 4.64 GB ↑ 0 ↓ 0
2024-02-15 magnet Медиатор [03х01-07 из 08] (2024) WEB-DL 1080p от ExKinoRay 8.49 GB ↑ 0 ↓ 0

Комментарии


Зарегистрируйтесь чтобы добавить комментарий
Торрент клиент
byTorrent - программа для загрузки торрент-файлов.

Скачать byTorrent.exe (1,5 МБ)

Скачать byTorrent.zip (0,6 МБ)

Поддержи torrent.by
российских рублей
(300 российских рублей это 4$)

Обратная связь rss

End game ©