↑↓torrent.by
Поиск
Логин:  Регистрация
Пароль:

OST - Atomic Heart, Vol.4 (Original Game Soundtrack) (2024) FLAC

download Скачать торрент-файл   magnet Магнитная ссылка Размер: 224.97 MB Добавлен: 2024-02-08 11:00
Пиры будут получены из сети DHT
Последний сидер был замечен 2024-02-11 16:50
VA - Atomic Heart, Vol.4 (Original Game Soundtrack) (2024) Жанр: Breakbeat, Progressive, Electronic, Metal Издание: 2024 Mundfish Music Источник: deezer Продолжительность: 00:33:56 Кодек: FLAC Битрейт: Lossless|WEB-DL Тип рипа: tracks Треклист: 01. Zvenit Yanvarskaya Vyuga 02. Na Zare 03. Cookie Crumbler 04. Goose Run 05. Rosa Dream 06. Sliding 07. СyberPioneer 08. Can't Miss
[+] Дополнительная информация: https://www.facebook.com/AtomicHeartOfficial
[+] Отчёт auCDtect Task manager: ----------------------- DON'T MODIFY THIS FILE ----------------------- PERFORMER: auCDtect Task Manager, ver. 1.6.0 RC1 build 1.6.0.1 Copyright (c) 2008-2010 y-soft. All rights reserved http://y-soft.org ANALYZER: auCDtect: CD records authenticity detector, version 0.8.2 Copyright (c) 2004 Oleg Berngardt. All rights reserved. Copyright (c) 2004 Alexander Djourik. All rights reserved. FILE: 08 - Can't Miss.flac Size: 21572287 Hash: 4A9DF8AC45081FD2EE266B5D99F9C276 Accuracy: -m0 Conclusion: CDDA 100% Signature: F709EF9C5BC146285CEABD37A5B137419A77E420 FILE: 07 - СyberPioneer.flac Size: 26857450 Hash: EE14CBB6781260C0EA3E7FBDF6F750BC Accuracy: -m0 Conclusion: CDDA 100% Signature: 0EF50014DC488D4D3C296FCA004947CA4195DA84 FILE: 06 - Sliding.flac Size: 33405996 Hash: 3EB346E43C7087296B5C164AB311797C Accuracy: -m0 Conclusion: CDDA 100% Signature: F087205A6D5D05D25079576A26B02AA50B9A171F FILE: 05 - Rosa Dream.flac Size: 22055728 Hash: 843981629E638E3FDB4F1594962A5DF7 Accuracy: -m0 Conclusion: CDDA 100% Signature: 107C25C0D850BCA3A6F52E998CA67981CA73ED20 FILE: 04 - Goose Run.flac Size: 42606059 Hash: F9DCBCC04E4896C84DE4AF09136916CC Accuracy: -m0 Conclusion: CDDA 100% Signature: 82E1F800CCE77AFE426C90390F46B9A4F20F0D53 FILE: 03 - Cookie Crumbler.flac Size: 33848590 Hash: B06ED6295AF90DA95D08E54C7F722786 Accuracy: -m0 Conclusion: CDDA 100% Signature: 56137A85F54693C46BDE4EF4B76B86B32CD1C23F FILE: 02 - Na Zare.flac Size: 28013879 Hash: EDCE1731DBB907CD8C6E99271A1AAA38 Accuracy: -m0 Conclusion: CDDA 100% Signature: CE14C2B5C4BFF0F43CA555CEBA2D4CBB58B9B856 FILE: 01 - Zvenit Yanvarskaya Vyuga.flac Size: 26574117 Hash: D627A4ED08534A1D7108ACE7B049C430 Accuracy: -m0 Conclusion: CDDA 100% Signature: 1A551688012BEB2CD8274A98C5496727258359BB
[+] DRMКод:
foobar2000 2.0 / Замер динамического диапазона (DR) 1.1.1 Дата отчёта: 2024-02-07 20:56:27 -------------------------------------------------------------------------------- Анализ: Andrey Bugrov, Atomic Heart / Atomic Heart, Vol.4 (Original Game Soundtrack) (1) Geoffplaysguitar, Atomic Heart / Atomic Heart, Vol.4 (Original Game Soundtrack) (2-3) Mitya, Atomic Heart / Atomic Heart, Vol.4 (Original Game Soundtrack) (4) Multiverse, Atomic Heart / Atomic Heart, Vol.4 (Original Game Soundtrack) (5) Альянс, Братство Атома, BassnPanda, Atomic Heart / Atomic Heart, Vol.4 (Original Game Soundtrack) (6) Братство Атома, BassnPanda, Atomic Heart / Atomic Heart, Vol.4 (Original Game Soundtrack) (7) Братство Атома, BassnPanda, Квашеная, Atomic Heart / Atomic Heart, Vol.4 (Original Game Soundtrack) (8) -------------------------------------------------------------------------------- DR Пики RMS Продолжительность трека -------------------------------------------------------------------------------- DR6 -0.05 дБ -8.25 дБ 7:12 06-Sliding DR8 0.00 дБ -9.33 дБ 4:23 03-Cookie Crumbler DR8 0.00 дБ -8.95 дБ 5:32 04-Goose Run DR8 0.00 дБ -9.73 дБ 3:22 08-Can't Miss DR7 0.00 дБ -8.98 дБ 3:05 05-Rosa Dream DR7 0.00 дБ -7.65 дБ 3:30 02-Na Zare DR6 0.00 дБ -7.87 дБ 3:36 07-СyberPioneer DR7 0.00 дБ -7.80 дБ 3:17 01-Zvenit Yanvarskaya Vyuga -------------------------------------------------------------------------------- Количество треков: 8 Реальные значения DR: DR7 Частота: 44100 Гц Каналов: 2 Разрядность: 16 Битрейт: 1048 кбит/с Кодек: FLAC ================================================================================
https://youtu.be/PbMMq8BSMLA

Всего файлов в раздаче: 9 
01 - Братство Атома, BassnPanda & Квашеная - Звенит январская вьюга.flac25.34 MB
02 - Альянс, Братство Атома & BassnPanda - На Заре.flac26.72 MB
03 - Geoffplaysguitar - Cookie Crumbler.flac32.28 MB
04 - Geoffplaysguitar - Goose Run.flac40.63 MB
05 - Multiverse - Rosa Dream.flac21.03 MB
06 - Andrey Bugrov - Sliding.flac31.86 MB
07 - Братство Атома & BassnPanda - СyberPioneerr.flac25.61 MB
08 - MITYA - Can't Miss.flac20.57 MB
cover.jpg940.85 kB

Похожие раздачи по запросу - OST
2024-01-06 magnet OST - Бременские музыканты (2023) FLAC 248.28 MB ↑ 0 ↓ 0
2024-01-05 magnet OST - Бременские музыканты (2023) MP3 87.47 MB ↑ 0 ↓ 0
2023-11-18 magnet OST - Голодные игры: Баллада о змеях и певчих птицах / The Hunger Games: The Ballad of Songbirds & Snakes (Music From & Inspired By) [24bit Hi-Res] (2023) FLAC 549.69 MB ↑ 0 ↓ 0

Комментарии


Зарегистрируйтесь чтобы добавить комментарий
Торрент клиент
byTorrent - программа для загрузки торрент-файлов.

Скачать byTorrent.exe (1,5 МБ)

Скачать byTorrent.zip (0,6 МБ)

Поддержи torrent.by
российских рублей
(300 российских рублей это 4$)

Обратная связь rss

End game ©