↑↓torrent.by
Поиск
Логин:  Регистрация
Пароль:

Главный герой. Апокалипсис / Скал - борьба за выживание / SKAL - Fight for Survival (2023) WEB-DL 1080p | D

download Скачать торрент-файл   magnet Магнитная ссылка Размер: 2.85 GB Добавлен: 2024-02-08 11:00
Пиры будут получены из сети DHT
Последний сидер был замечен вчера в 12:37
Информация о фильме Название: Главный герой. Апокалипсис / Скал - борьба за выживание Оригинальное название: SKAL - Fight for Survival Год выпуска: 2023 Жанр: триллер Выпущено: Канада / 2Good Productions, Productions La Guérilla, Les Режиссер: Бенжамин Каппеллетти В ролях: Даррен Айснор, Тревор Хэйес, Мэрайя Ингер, Ивэн Марш, Крис Сэндифорд, Оливия Скривен Описание: Блогер и стендапер Артур только что набрал три миллиона подписчиков. Чтобы это отметить, он закатывает масштабную вечеринку. В самый разгар веселья выясняется, что в мире начинается самый настоящий апокалипсис. Исчезают все запасы пресной воды. В результате вместо вечеринки гости начинают жестокую борьбу за выживание. Теперь важно не сколько у тебя подписчиков, а умеешь ли ты драться и стрелять из оружия. Возраст: 18+ (зрителям, достигшим 18 лет. запрещено для детей) Продолжительность: 01:16:41 Перевод: Дублированный (Официальный) Субтитры: Отсутствуют Файл Формат: MKV Качество: WEB-DL 1080p Видео: AVC/H.264, 1920x1080, ~5000 Kbps Аудио: E-AC3, 6 ch, 384 Kbps - Русский (DUB) Релиз от: karfagen1975
[+] MediaInfo:General Unique ID : 250298675566933223058321500262124937523 (0xBC4DC57C889B5D6FA2F6FB79462EE133) Complete name : SKAL - Fight for Survival (2023) WEB-DL 1080p.mkv Format : Matroska Format version : Version 4 File size : 2.85 GiB Duration : 1 h 16 min Overall bit rate : 5 311 kb/s Frame rate : 24.000 FPS Encoded date : 2024-02-07 16:01:51 UTC Writing application : mkvmerge v75.0.0 ('Goliath') 64-bit Writing library : libebml v1.4.4 + libmatroska v1.7.1 Video ID : 1 Format : AVC Format/Info : Advanced Video Codec Format profile : High@L4 Format settings : CABAC / 3 Ref Frames Format settings, CABAC : Yes Format settings, Reference frames : 3 frames Codec ID : V_MPEG4/ISO/AVC Duration : 1 h 16 min Bit rate : 5 000 kb/s Width : 1 920 pixels Height : 1 080 pixels Display aspect ratio : 16:9 Frame rate mode : Constant Frame rate : 24.000 FPS Color space : YUV Chroma subsampling : 4:2:0 Bit depth : 8 bits Scan type : Progressive Bits/(Pixel*Frame) : 0.100 Stream size : 2.64 GiB (93%) Title : Главный герой. Апокалипсис (2023) WEB-DL 1080p Writing library : x264 core 164 r3095 baee400 Encoding settings : cabac=1 / ref=4 / deblock=1:-1:-1 / analyse=0x3:0x133 / me=umh / subme=9 / psy=1 / psy_rd=0.40:1.00 / mixed_ref=1 / me_range=24 / chroma_me=1 / trellis=0 / 8x8dct=1 / cqm=0 / deadzone=21,11 / fast_pskip=1 / chroma_qp_offset=-2 / threads=3 / lookahead_threads=1 / sliced_threads=0 / nr=0 / decimate=1 / interlaced=0 / bluray_compat=0 / stitchable=1 / constrained_intra=0 / bframes=8 / b_pyramid=1 / b_adapt=0 / b_bias=0 / direct=3 / weightb=1 / open_gop=0 / weightp=2 / keyint=72 / keyint_min=37 / scenecut=0 / intra_refresh=0 / rc_lookahead=40 / rc=2pass / mbtree=1 / bitrate=5000 / ratetol=1.0 / qcomp=0.80 / qpmin=1 / qpmax=69 / qpstep=4 / cplxblur=20.0 / qblur=0.5 / vbv_maxrate=7500 / vbv_bufsize=10000 / nal_hrd=none / filler=0 / ip_ratio=1.40 / aq=1:1.00 Language : English Default : Yes Forced : No Color range : Limited Color primaries : BT.709 Transfer characteristics : BT.709 Matrix coefficients : BT.709 Audio ID : 2 Format : E-AC-3 Format/Info : Enhanced AC-3 Commercial name : Dolby Digital Plus Codec ID : A_EAC3 Duration : 1 h 16 min Bit rate mode : Constant Bit rate : 384 kb/s Channel(s) : 6 channels Channel layout : L R C LFE Ls Rs Sampling rate : 48.0 kHz Frame rate : 31.250 FPS (1536 SPF) Compression mode : Lossy Stream size : 211 MiB (7%) Language : Russian Service kind : Complete Main Default : Yes Forced : No
[+] Скриншоты
[+] Дополнительные скриншоты:

Всего файлов в раздаче: 1 
SKAL - Fight for Survival (2023) WEB-DL 1080p.mkv2.85 GB

Похожие раздачи по запросу - Главный
2024-01-03 magnet Главный новогодний концерт (2024) WEBRip 1К1.57 GB ↑ 0 ↓ 0
2023-09-09 magnet Серия книг - «Главный триллер года» [22 книги] (2019-2023) FB2 41.00 MB ↑ 0 ↓ 0

Комментарии


Зарегистрируйтесь чтобы добавить комментарий
Торрент клиент
byTorrent - программа для загрузки торрент-файлов.

Скачать byTorrent.exe (1,5 МБ)

Скачать byTorrent.zip (0,6 МБ)

Поддержи torrent.by
российских рублей
(300 российских рублей это 4$)

Обратная связь rss

End game ©