↑↓torrent.by
Поиск
Логин:  Регистрация
Пароль:

Forester - Moonlight [24-bit Hi-Res] (2024) FLAC

download Скачать торрент-файл   magnet Магнитная ссылка Размер: 524.09 MB Добавлен: 2024-02-08 17:00
Пиры будут получены из сети DHT
Последний сидер был замечен 2024-02-26 23:25
Название: Moonlight Исполнитель: Forester Год: 2024 Жанр: Electronic, Dance Издатель (лейбл): Palm Tree Records Продолжительность: 00:44:00 Формат/Кодек: FLAC Тип рипа: Tracks Битрейт аудио: Lossless Разрядность: 24 Bit/48 kHz
[+] Трек-лист 01. Sunrise 02. Pieces 03. The Desert, I Run 04. Grow 05. Breathless 06. Holding Back 07. Past Present Future 08. When I Fall Asleep 09. Lost In Paradise 10. Chemicals 11. Thinking About You 12. Say No More 13. All I Need
[+] DRM foobar2000 1.5.5 / Замер динамического диапазона (DR) 1.1.1 ------------------------------------------------------------------------------- Анализ: Forester / Moonlight -------------------------------------------------------------------------------- DR Пики RMS Продолжительность трека -------------------------------------------------------------------------------- DR4 -0.10 дБ -6.64 дБ 5:13 01-Sunrise DR3 -0.14 дБ -5.37 дБ 4:18 02-Pieces DR4 -0.14 дБ -6.57 дБ 3:09 03-The Desert, I Run DR4 -0.14 дБ -5.60 дБ 3:50 04-Grow DR4 -0.04 дБ -6.87 дБ 4:00 05-Breathless DR4 -0.01 дБ -5.61 дБ 3:09 06-Holding Back DR6 -0.20 дБ -8.74 дБ 2:13 07-Past Present Future DR5 -0.10 дБ -6.55 дБ 3:14 08-When I Fall Asleep DR5 -0.07 дБ -7.01 дБ 2:37 09-Lost In Paradise DR4 -0.10 дБ -6.56 дБ 2:58 11-Thinking About You DR4 -0.14 дБ -6.27 дБ 3:01 12-Say No More DR4 0.00 дБ -5.20 дБ 3:07 13-All I Need -------------------------------------------------------------------------------- Количество треков: 12 Реальные значения DR: DR4 Частота: 44100 Гц Каналов: 2 Разрядность: 24 Битрейт: 1763 кбит/с Кодек: FLAC ================================================================================ -------------------------------------------------------------------------------- Статистика для: 10-Chemicals Количество сэмплов: 9147401 Продолжительность: 3:11 -------------------------------------------------------------------------------- Левый Правый Пики: -0.10 дБ --- -0.10 дБ Средний RMS: -6.13 дБ --- -6.25 дБ DR канала: 4.77 дБ --- 4.61 дБ -------------------------------------------------------------------------------- Реальные значения DR: DR5 Частота: 48000 Гц Каналов: 2 Разрядность: 24 Битрейт: 1820 кбит/с Кодек: FLAC ================================================================================
Время раздачи: 24/7 (минимум до появления первых 3-5 скачавших, на раздачи не возвращаюсь) Первое правило участника файлообмена: "Скачал сам - дай скачать другому!"

Всего файлов в раздаче: 14 
01. Sunrise.flac59.51 MB
02. Pieces.flac48.92 MB
03. The Desert, I Run.flac36.47 MB
04. Grow.flac44.55 MB
05. Breathless.flac46.59 MB
06. Holding Back.flac40.09 MB
07. Past Present Future.flac24.54 MB
08. When I Fall Asleep.flac40.04 MB
09. Lost In Paradise.flac33.88 MB
10. Chemicals.flac41.46 MB
Показать все файлы

Комментарии


Зарегистрируйтесь чтобы добавить комментарий
Торрент клиент
byTorrent - программа для загрузки торрент-файлов.

Скачать byTorrent.exe (1,5 МБ)

Скачать byTorrent.zip (0,6 МБ)

Поддержи torrent.by
российских рублей
(300 российских рублей это 4$)

Обратная связь rss

End game ©