↑↓torrent.by
Поиск
Логин:  Регистрация
Пароль:

Провал во времени / Retroactive (1997) BDRip 720p от DoMiNo | P, P2, A

download Скачать торрент-файл   magnet Магнитная ссылка Размер: 5.73 GB Добавлен: 2024-02-08 17:00
Пиры будут получены из сети DHT
Последний сидер был замечен 2024-02-10 22:15
Информация о фильме Название: Провал во времени Оригинальное название: Retroactive Год выпуска: 1997 Жанр: Фантастика, триллер, криминал, приключения Режиссер: Луис Морно В ролях: Джеймс Белуши, Кайли Трэвис, Шэннон Уирри, Фрэнк Уэйли, Джесси Боррего, М. Эммет Уолш, Шерман Ховард, Гай Бойд, Кристина Коггинс, Робби Тибо мл. О фильме: Оставшись без автомобиля в результате небольшой аварии, Карен садится в машину к водителю Фрэнку и его жене Райан, чтобы добраться до города. На ближайшей автозаправке Фрэнк ссорится с человеком и пускает в ход оружие, пытаясь убить заодно и всех присутствующих как свидетелей. Карен в испуге бежит к ближайшему зданию и попадает в лабораторию ученого, который проводит эксперимент по перемещению во времени. Карен удается попасть в прошлое, когда эти кровавые события еще не начались. Девушка несколько раз пытается переместиться, чтобы предотвратить трагедию на заправке, но у нее ничего не получается, так как у нее очень маленький временной промежуток - всего 20 минут, а с каждым разом ситуация приобретает все более мрачные обороты... Выпущено: США, Cohiba Pictures, Orion Pictures Entertainment, Scanbox Entertainment Продолжительность: 01:30:59 Перевод: Профессиональный многоголосый, профессиональный двухголосый, авторский Субтитры: Русские, английские Файл Качество: BDRip 720p Видео: 1280x544 at 23.976 fps, x264@L4.1, ~6434 kbps Аудио 1: Русский: AC3, 2 ch, ~256 kbps | Многоголосый закадровый, СТС| Аудио 2: Русский: AC3, 2 ch, ~192 kbps | Многоголосый закадровый, ТВ6 / СВ-Кадр| Аудио 3: Русский: AC3, 2 ch, ~192 kbps | Многоголосый закадровый, VHS| Аудио 4: Русский: AC3, 2 ch, ~192 kbps | Двухголосый закадровый, НТВ+| Аудио 5: Русский: AC3, 6 ch, ~448 kbps | Одноголосый закадровый, Ю.Сербин| Аудио 6: Русский: AC3, 6 ch, ~448 kbps | Одноголосый закадровый, С.Визгунов| Аудио 7: Украинский: AC3, 2 ch, ~192 kbps | Многоголосый закадровый, AMC| Аудио 8: Украинский: AC3, 2 ch, ~192 kbps | Многоголосый закадровый, ICTV| Аудио 9: Английский: AC3, 6 ch, ~448 kbps | Оригинал (английский) Формат субтитров: softsub (SRT) ***Релиз от: -=DoMiNo=-
[+] M/Ix264 : frame I:798 Avg QP:15.84 size: 92013 x264 : frame P:30385 Avg QP:16.94 size: 54764 x264 : frame B:99697 Avg QP:18.89 size: 26606 x264 : consecutive B-frames: 3.1% 4.2% 9.3% 19.5% 19.3% 29.7% 6.3% 3.1% 1.7% 1.0% 0.7% 0.6% 0.5% 0.6% 0.2% 0.2% 0.0% General Unique ID : 117828004704405188857733377701582077017 (0x58A4D927395AE92317DD719BDD41FC59) Complete name : D:123Retroactive.1997.BDRip.720p.x264.mkv Format : Matroska Format version : Version 4 File size : 5.73 GiB Duration : 1 h 31 min Overall bit rate : 9 004 kb/s Encoded date : UTC 2022-05-13 15:48:27 Writing application : mkvmerge v63.0.0 ('Everything') 64-bit Writing library : libebml v1.4.2 + libmatroska v1.6.4 Cover : Yes Attachments : cover.jpg / cover 2.jpg Video ID : 1 Format : AVC Format/Info : Advanced Video Codec Format profile : High@L4.1 Format settings : CABAC / 12 Ref Frames Format settings, CABAC : Yes Format settings, Reference : 12 frames Codec ID : V_MPEG4/ISO/AVC Duration : 1 h 30 min Bit rate : 6 434 kb/s Width : 1 280 pixels Height : 544 pixels Display aspect ratio : 2.35:1 Frame rate mode : Constant Frame rate : 23.976 (24000/1001) FPS Color space : YUV Chroma subsampling : 4:2:0 Bit depth : 8 bits Scan type : Progressive Bits/(Pixel*Frame) : 0.385 Stream size : 4.09 GiB (71%) Title : -=DoMiNo=- Writing library : x264 core 164 r3094 bfc87b7 Encoding settings : cabac=1 / ref=12 / deblock=1:-2:-2 / analyse=0x3:0x133 / me=umh / subme=11 / psy=1 / psy_rd=1.05:0.15 / mixed_ref=1 / me_range=32 / chroma_me=1 / trellis=2 / 8x8dct=1 / cqm=0 / deadzone=21,11 / fast_pskip=0 / chroma_qp_offset=-3 / threads=17 / lookahead_threads=4 / sliced_threads=0 / nr=0 / decimate=0 / interlaced=0 / bluray_compat=0 / constrained_intra=0 / bframes=16 / b_pyramid=2 / b_adapt=2 / b_bias=0 / direct=3 / weightb=1 / open_gop=0 / weightp=2 / keyint=250 / keyint_min=23 / scenecut=40 / intra_refresh=0 / rc_lookahead=60 / rc=crf / mbtree=0 / crf=18.0 / qcomp=0.65 / qpmin=0 / qpmax=69 / qpstep=4 / vbv_maxrate=50000 / vbv_bufsize=62500 / crf_max=0.0 / nal_hrd=none / filler=0 / ip_ratio=1.35 / pb_ratio=1.25 / aq=3:0.80 Language : English Default : Yes Forced : No Color range : Limited Color primaries : BT.709 Transfer characteristics : BT.709 Matrix coefficients : BT.709 Audio #1 ID : 2 Format : AC-3 Format/Info : Audio Coding 3 Commercial name : Dolby Digital Codec ID : A_AC3 Duration : 1 h 31 min Bit rate mode : Constant Bit rate : 256 kb/s Channel(s) : 2 channels Channel layout : L R Sampling rate : 48.0 kHz Frame rate : 31.250 FPS (1536 SPF) Compression mode : Lossy Stream size : 167 MiB (3%) Title : MVO_СТС Language : Russian Service kind : Complete Main Default : Yes Forced : No Audio #2 ID : 3 Format : AC-3 Format/Info : Audio Coding 3 Commercial name : Dolby Digital Codec ID : A_AC3 Duration : 1 h 31 min Bit rate mode : Constant Bit rate : 192 kb/s Channel(s) : 2 channels Channel layout : L R Sampling rate : 48.0 kHz Frame rate : 31.250 FPS (1536 SPF) Compression mode : Lossy Stream size : 125 MiB (2%) Title : MVO_ТВ6 / СВ-Кадр Language : Russian Service kind : Complete Main Default : No Forced : No Audio #3 ID : 4 Format : AC-3 Format/Info : Audio Coding 3 Commercial name : Dolby Digital Codec ID : A_AC3 Duration : 1 h 31 min Bit rate mode : Constant Bit rate : 192 kb/s Channel(s) : 2 channels Channel layout : L R Sampling rate : 48.0 kHz Frame rate : 31.250 FPS (1536 SPF) Compression mode : Lossy Stream size : 125 MiB (2%) Title : MVO_VHS Language : Russian Service kind : Complete Main Default : No Forced : No Audio #4 ID : 5 Format : AC-3 Format/Info : Audio Coding 3 Commercial name : Dolby Digital Codec ID : A_AC3 Duration : 1 h 30 min Bit rate mode : Constant Bit rate : 192 kb/s Channel(s) : 2 channels Channel layout : L R Sampling rate : 48.0 kHz Frame rate : 31.250 FPS (1536 SPF) Compression mode : Lossy Stream size : 125 MiB (2%) Title : DVO_НТВ+ Language : Russian Service kind : Complete Main Default : No Forced : No Audio #5 ID : 6 Format : AC-3 Format/Info : Audio Coding 3 Commercial name : Dolby Digital Codec ID : A_AC3 Duration : 1 h 30 min Bit rate mode : Constant Bit rate : 448 kb/s Channel(s) : 6 channels Channel layout : L R C LFE Ls Rs Sampling rate : 48.0 kHz Frame rate : 31.250 FPS (1536 SPF) Compression mode : Lossy Stream size : 292 MiB (5%) Title : AVO_Ю.Сербин Language : Russian Service kind : Complete Main Default : No Forced : No Audio #6 ID : 7 Format : AC-3 Format/Info : Audio Coding 3 Commercial name : Dolby Digital Codec ID : A_AC3 Duration : 1 h 30 min Bit rate mode : Constant Bit rate : 448 kb/s Channel(s) : 6 channels Channel layout : L R C LFE Ls Rs Sampling rate : 48.0 kHz Frame rate : 31.250 FPS (1536 SPF) Compression mode : Lossy Stream size : 292 MiB (5%) Title : AVO_С.Визгунов Language : Russian Service kind : Complete Main Default : No Forced : No Audio #7 ID : 8 Format : AC-3 Format/Info : Audio Coding 3 Commercial name : Dolby Digital Codec ID : A_AC3 Duration : 1 h 30 min Bit rate mode : Constant Bit rate : 192 kb/s Channel(s) : 2 channels Channel layout : L R Sampling rate : 48.0 kHz Frame rate : 31.250 FPS (1536 SPF) Compression mode : Lossy Stream size : 125 MiB (2%) Title : MVO_AMC Language : Ukrainian Service kind : Complete Main Default : No Forced : No Audio #8 ID : 9 Format : AC-3 Format/Info : Audio Coding 3 Commercial name : Dolby Digital Codec ID : A_AC3 Duration : 1 h 30 min Bit rate mode : Constant Bit rate : 192 kb/s Channel(s) : 2 channels Channel layout : L R Sampling rate : 48.0 kHz Frame rate : 31.250 FPS (1536 SPF) Compression mode : Lossy Stream size : 125 MiB (2%) Title : MVO_ICTV Language : Ukrainian Service kind : Complete Main Default : No Forced : No Audio #9 ID : 10 Format : AC-3 Format/Info : Audio Coding 3 Commercial name : Dolby Digital Codec ID : A_AC3 Duration : 1 h 31 min Bit rate mode : Constant Bit rate : 448 kb/s Channel(s) : 6 channels Channel layout : L R C LFE Ls Rs Sampling rate : 48.0 kHz Frame rate : 31.250 FPS (1536 SPF) Compression mode : Lossy Stream size : 292 MiB (5%) Language : English Service kind : Complete Main Default : No Forced : No Text #1 ID : 11 Format : UTF-8 Codec ID : S_TEXT/UTF8 Codec ID/Info : UTF-8 Plain Text Duration : 1 h 24 min Bit rate : 89 b/s Count of elements : 895 Stream size : 55.4 KiB (0%) Language : Russian Default : No Forced : No Text #2 ID : 12 Format : UTF-8 Codec ID : S_TEXT/UTF8 Codec ID/Info : UTF-8 Plain Text Duration : 1 h 23 min Bit rate : 54 b/s Count of elements : 904 Stream size : 32.9 KiB (0%) Language : English Default : No Forced : No Text #3 ID : 13 Format : PGS Muxing mode : zlib Codec ID : S_HDMV/PGS Codec ID/Info : Picture based subtitle format used on BDs/HD-DVDs Duration : 1 h 24 min Bit rate : 23.5 kb/s Count of elements : 1790 Stream size : 14.2 MiB (0%) Language : Russian Default : No Forced : No Text #4 ID : 14 Format : PGS Muxing mode : zlib Codec ID : S_HDMV/PGS Codec ID/Info : Picture based subtitle format used on BDs/HD-DVDs Duration : 1 h 23 min Bit rate : 30.7 kb/s Count of elements : 1812 Stream size : 18.3 MiB (0%) Language : English Default : No Forced : No Menu 00:00:00.000 : :Глава 1 00:06:46.947 : :Глава 2 00:08:56.159 : :Глава 3 00:12:21.155 : :Глава 4 00:18:19.681 : :Глава 5 00:23:28.073 : :Глава 6 00:31:17.208 : :Глава 7 00:38:54.331 : :Глава 8 00:45:28.141 : :Глава 9 00:49:14.784 : :Глава 10 00:54:08.536 : :Глава 11 01:01:34.314 : :Глава 12 01:09:13.564 : :Глава 13 01:16:24.453 : :Глава 14 01:20:28.238 : :Глава 15 01:26:57.462 : :Глава 16
[+] Скриншоты

Всего файлов в раздаче: 1 
Retroactive.1997.BDRip.720p.x264.mkv5.73 GB

Комментарии


Зарегистрируйтесь чтобы добавить комментарий
Торрент клиент
byTorrent - программа для загрузки торрент-файлов.

Скачать byTorrent.exe (1,5 МБ)

Скачать byTorrent.zip (0,6 МБ)

Поддержи torrent.by
российских рублей
(300 российских рублей это 4$)

Обратная связь rss

End game ©