↑↓torrent.by
Поиск
Логин:  Регистрация
Пароль:

Воздушное ограбление / Lift (2024) WEB-DL 1080p | D | Condor Films Studio

download Скачать торрент-файл   magnet Магнитная ссылка Размер: 4.69 GB Добавлен: 2024-02-09 05:00
Пиры будут получены из сети DHT
Последний сидер был замечен 2024-02-09 05:00
Воздушное ограбление Страна: США Жанр: боевик, комедия, криминал Год выпуска: 2024 Продолжительность: 1:46:43 Перевод: Дублированный (любительский, неофициальный) - Condor Films Studio Субтитры: форсированные(к озвучке), русские(полные), английские(SDH) Оригинальная аудиодорожка: английский Режиссер: Ф. Гэри Грей / F. Gary Gray В ролях: Кевин Харт, Гугу Мбата-Роу, Винсент Д'Онофрио, Урсула Корберо, Билли Магнуссен, Жан Рено, Сэм Уортингтон, Бёрн Горман, Вайвек Калра, Джейкоб Баталон, Кэролайн Лонк, Пол Андерсон, Росс Андерсон, Жесс Лиоден, Алфредо Таварес Описание: Профессиональный вор с командой опытных подельников пытается совершить невероятное ограбление и украсть 100 миллионов золотом из сейфа в самолете на высоте 12.000 метров. Качество видео: WEB-DL 1080p Формат видео: MKV Видео: H.264, 1920x1080, 24fps, 5000kbps Аудио: AC-3, 48kHz, 640kbps, 6 ch Аудио 2: E-AC-3 JOC+Atmos, 48kHz, 768kbps, 6 ch Формат субтитров: softsub (SRT) СКРИНШОТЫ:
[+] MediaInfo General Unique ID : 252877655975312161671960171819833429610 (0xBE3E7709A548834D024CBA73263F0E6A) Complete name : F:Condor Films Studio ProductsLiftLift.CondorFilmsStudio.1080p.mkv Format : Matroska Format version : Version 4 File size : 4.69 GiB Duration : 1 h 46 min Overall bit rate mode : Variable Overall bit rate : 6 291 kb/s Frame rate : 24.000 FPS Movie name : Воздушное ограбление КФС Encoded date : 2024-02-08 14:12:29 UTC Writing application : mkvmerge v82.0 ('I'm The President') 64-bit Writing library : libebml v1.4.5 + libmatroska v1.7.1 Video ID : 1 Format : AVC Format/Info : Advanced Video Codec Format profile : Main@L4 Format settings : CABAC / 3 Ref Frames Format settings, CABAC : Yes Format settings, Reference frames : 3 frames Codec ID : V_MPEG4/ISO/AVC Duration : 1 h 46 min Bit rate mode : Variable Bit rate : 5 000 kb/s Maximum bit rate : 7 500 kb/s Width : 1 920 pixels Height : 1 080 pixels Display aspect ratio : 16:9 Frame rate mode : Constant Frame rate : 24.000 FPS Color space : YUV Chroma subsampling : 4:2:0 Bit depth : 8 bits Scan type : Progressive Bits/(Pixel*Frame) : 0.100 Stream size : 3.64 GiB (78%) Writing library : x264 core 148 r2727 7d026e8 Encoding settings : cabac=1 / ref=3 / deblock=1:0:0 / analyse=0x1:0x111 / me=umh / subme=10 / psy=1 / psy_rd=1.00:0.00 / mixed_ref=1 / me_range=24 / chroma_me=1 / trellis=2 / 8x8dct=0 / cqm=0 / deadzone=21,11 / fast_pskip=1 / chroma_qp_offset=-2 / threads=6 / lookahead_threads=1 / sliced_threads=0 / nr=0 / decimate=1 / interlaced=0 / bluray_compat=0 / stitchable=1 / constrained_intra=0 / bframes=2 / b_pyramid=0 / b_adapt=2 / b_bias=0 / direct=3 / weightb=1 / open_gop=0 / weightp=2 / keyint=240 / keyint_min=121 / scenecut=0 / intra_refresh=0 / rc_lookahead=48 / rc=2pass / mbtree=1 / bitrate=5000 / ratetol=1.0 / qcomp=0.50 / qpmin=6 / qpmax=51 / qpstep=4 / cplxblur=20.0 / qblur=0.5 / vbv_maxrate=7500 / vbv_bufsize=10000 / nal_hrd=vbr / filler=0 / ip_ratio=1.40 / aq=1:1.00 Language : Multiple languages Default : Yes Forced : No Audio #1 ID : 2 Format : AC-3 Format/Info : Audio Coding 3 Commercial name : Dolby Digital Codec ID : A_AC3 Duration : 1 h 46 min Bit rate mode : Constant Bit rate : 640 kb/s Channel(s) : 6 channels Channel layout : L R C LFE Ls Rs Sampling rate : 48.0 kHz Frame rate : 31.250 FPS (1536 SPF) Compression mode : Lossy Stream size : 489 MiB (10%) Title : Дубляж - Condor Films Studio Language : Russian Service kind : Complete Main Default : Yes Forced : No Audio #2 ID : 3 Format : E-AC-3 JOC Format/Info : Enhanced AC-3 with Joint Object Coding Commercial name : Dolby Digital Plus with Dolby Atmos Codec ID : A_EAC3 Duration : 1 h 46 min Bit rate mode : Constant Bit rate : 768 kb/s Channel(s) : 6 channels Channel layout : L R C LFE Ls Rs Sampling rate : 48.0 kHz Frame rate : 31.250 FPS (1536 SPF) Compression mode : Lossy Stream size : 586 MiB (12%) Title : Original Language : English Service kind : Complete Main Default : No Forced : No Complexity index : 16 Number of dynamic objects : 15 Bed channel count : 1 channel Bed channel configuration : LFE Text #1 ID : 4 Format : UTF-8 Codec ID : S_TEXT/UTF8 Codec ID/Info : UTF-8 Plain Text Duration : 9 min 52 s Bit rate : 7 b/s Frame rate : 0.024 FPS Count of elements : 14 Stream size : 572 Bytes (0%) Title : CFS Forced Language : Russian Default : Yes Forced : No Text #2 ID : 5 Format : UTF-8 Codec ID : S_TEXT/UTF8 Codec ID/Info : UTF-8 Plain Text Duration : 1 h 44 min Bit rate : 79 b/s Frame rate : 0.291 FPS Count of elements : 1819 Stream size : 60.5 KiB (0%) Title : SDH Language : English Default : No Forced : No Text #3 ID : 6 Format : UTF-8 Codec ID : S_TEXT/UTF8 Codec ID/Info : UTF-8 Plain Text Duration : 1 h 43 min Bit rate : 90 b/s Frame rate : 0.230 FPS Count of elements : 1424 Stream size : 68.2 KiB (0%) Title : Русский Language : Russian Default : No Forced : No

Всего файлов в раздаче: 1 
Lift.CondorFilmsStudio.1080p.mkv4.69 GB

Похожие раздачи по запросу - Воздушное
2024-02-10 magnet Воздушное ограбление / Lift (2024) WEB-DLRip-AVC от ExKinoRay | D 745.16 MB ↑ 0 ↓ 0
2024-02-09 magnet Воздушное ограбление / Lift (2024) WEB-DLRip 720p от DoMiNo & селезень | D, P2 2.89 GB ↑ 0 ↓ 0
2024-02-09 magnet Воздушное ограбление / Lift (2024) WEB-DL-HEVC 2160p | 4K | SDR | D 10.33 GB ↑ 0 ↓ 0
2024-02-09 magnet Воздушное ограбление / Lift (2024) WEB-DL 720p от ExKinoRay | D 2.35 GB ↑ 0 ↓ 0
2024-02-09 magnet Воздушное ограбление / Lift (2024) WEB-DLRip от MegaPeer | D | Red Head Sound 1.46 GB ↑ 0 ↓ 0
2024-02-09 magnet Воздушное ограбление / Lift (2024) WEB-DL 2160p | 4K | HDR | D | Condor Films Studio 19.20 GB ↑ 0 ↓ 0
2024-02-09 magnet Воздушное ограбление / Lift (2024) WEB-DL 1080p от Scarabey | D | Red Head Sound 4.69 GB ↑ 0 ↓ 0

Комментарии

mussik111
Судя по сэмплу дубляж очень даже неплохой. За раздачу 10-ку.


Зарегистрируйтесь чтобы добавить комментарий
Торрент клиент
byTorrent - программа для загрузки торрент-файлов.

Скачать byTorrent.exe (1,5 МБ)

Скачать byTorrent.zip (0,6 МБ)

Поддержи torrent.by
российских рублей
(300 российских рублей это 4$)

Обратная связь rss

End game ©