↑↓torrent.by
Поиск
Логин:  Регистрация
Пароль:

Игра смерти / И-Джэ скоро умрёт / Death's Game [S01] (2023) WEB-DL 1080p | Red Head Sound

download Скачать торрент-файл   magnet Магнитная ссылка Размер: 26.17 GB Добавлен: 2024-02-09 05:00
Пиры будут получены из сети DHT
Последний сидер был замечен вчера в 15:34
Информация о фильме Название: Игра смерти / И-Джэ скоро умрёт Оригинальное название: Death's Game Год выхода: 2023 Жанр: Фэнтези, драма Режиссер: Ха Бён-хун В ролях: Со Ин-гук, Пак Со-дам, Сон Хун, Ли Джэ-ук, Ким Джэ-ук, Чхве Щи-вон, Чан Сын-джо, Ким Джи-хун, О Джон-сэ, Ю Ин-су О фильме: Чхве И-джэ вырос в бедной семье и не получил в жизни хороший старт, поэтому после семи лет безуспешных попыток устроиться на хорошую работу парень впадает в отчаяние и совершает самоубийство. Он думал, что на этом его мучения закончатся, но не тут-то было. И-джэ оказывается перед вратами ада, где его встречает ангел смерти, и узнаёт, что в качестве наказания будет умирать 12 раз в разных телах. А если он не хочет попасть в ад, то должен постараться выжить. Страна: Южная Корея Продолжительность: ~00:50:00 серия Перевод: Профессиональный (многоголосый, закадровый) Red Head Sound Файл Кодек: MKV Качество: WEB-DL 1080p Видео: MPEG-4 AVC, ~ 8 955 Кбит/с, 1920x960 Звук: Аудио #1: AC3, 192 kbps (CBR), 48.0 KHz , 2 ch, Russian - Red Head Sound Аудио #2: E-AC-3, 224 kbps (CBR), 48.0 KHz, 2 ch, Korean Субтитры: нет
[+] MediaInfo General Unique ID : 318560614468437808182602077376595490502 (0xEFA88AEB284746DB2730FB003E5DF6C6) Complete name : E:TorrentsDeaths.Game.S01.1080p.RHSDeaths Game.S01E01.mkv Format : Matroska Format version : Version 4 File size : 2.97 GiB Duration : 45 min 16 s Overall bit rate mode : Constant Overall bit rate : 9 375 kb/s Frame rate : 23.976 FPS Movie name : Deaths Game. S01E01 Writing application : Lavf58.9.100 Writing library : Lavf58.9.100 ErrorDetectionType : Per level 1 Video ID : 1 Format : AVC Format/Info : Advanced Video Codec Format profile : High@L4 Format settings : CABAC / 4 Ref Frames Format settings, CABAC : Yes Format settings, Reference fra : 4 frames Codec ID : V_MPEG4/ISO/AVC Duration : 45 min 16 s Bit rate mode : Constant Bit rate : 8 955 kb/s Nominal bit rate : 10 000 kb/s Width : 1 920 pixels Height : 960 pixels Display aspect ratio : 2.000 Frame rate mode : Constant Frame rate : 23.976 (24000/1001) FPS Color space : YUV Chroma subsampling : 4:2:0 Bit depth : 8 bits Scan type : Progressive Bits/(Pixel*Frame) : 0.203 Stream size : 2.83 GiB (96%) Default : Yes Forced : No Color range : Limited Color primaries : BT.709 Transfer characteristics : BT.709 Matrix coefficients : BT.709 Audio #1 ID : 2 Format : AC-3 Format/Info : Audio Coding 3 Commercial name : Dolby Digital Codec ID : A_AC3 Duration : 45 min 16 s Bit rate mode : Constant Bit rate : 192 kb/s Channel(s) : 2 channels Channel layout : L R Sampling rate : 48.0 kHz Frame rate : 31.250 FPS (1536 SPF) Bit depth : 32 bits Compression mode : Lossy Stream size : 62.2 MiB (2%) Title : Red Head Sound Language : Russian Service kind : Complete Main Default : Yes Forced : No Audio #2 ID : 3 Format : E-AC-3 Format/Info : Enhanced AC-3 Commercial name : Dolby Digital Plus Codec ID : A_EAC3 Duration : 45 min 16 s Bit rate mode : Constant Bit rate : 224 kb/s Channel(s) : 2 channels Channel layout : L R Sampling rate : 48.0 kHz Frame rate : 31.250 FPS (1536 SPF) Bit depth : 32 bits Compression mode : Lossy Stream size : 72.5 MiB (2%) Language : Korean Service kind : Complete Main Default : No Forced : No Menu 00:42:57.000 : End Credits
[+] Скриншоты

Всего файлов в раздаче: 8 
Deaths Game.S01E01.mkv2.97 GB
Deaths Game.S01E02.mkv3.05 GB
Deaths Game.S01E03.mkv3.88 GB
Deaths Game.S01E04.mkv3.73 GB
Deaths Game.S01E05.mkv3.91 GB
Deaths Game.S01E06.mkv3.92 GB
Deaths Game.S01E07.mkv2.51 GB
Deaths Game.S01E08.mkv2.19 GB

Похожие раздачи по запросу - Игра
Сегодня magnet Темная игра / Пила. Джокер / DarkGame (2024) WEB-DLRip от Portablius | P2 745.85 MB ↑ 0 ↓ 0
Вчера magnet Темная игра / Пила. Джокер / DarkGame (2024) WEB-DL 1080p | ViruseProject 1К6.83 GB ↑ 2 ↓ 0
Вчера magnet Темная игра / Пила. Джокер / DarkGame (2024) WEB-DLRip-AVC от New-Team | P2 | ViruseProject 2.05 GB ↑ 0 ↓ 0
Вчера magnet Темная игра / Пила. Джокер / DarkGame (2024) WEB-DLRip 720p от DoMiNo & селезень | P2 | ViruseProject 2.56 GB ↑ 0 ↓ 0
Вчера magnet Темная игра / Пила. Джокер / DarkGame (2024) WEB-DLRip от MegaPeer | P2 | ViruseProject 1.46 GB ↑ 1 ↓ 0
2024-02-23 magnet Игра в переговоры / Hyeopsang / The Negotiation (2018) BDRip от MegaPeer | P 1.46 GB ↑ 0 ↓ 0
2024-02-23 magnet Игра в переговоры / Hyeopsang / The Negotiation (2018) WEB-DL 1080p | P 4.22 GB ↑ 0 ↓ 0

Комментарии


Зарегистрируйтесь чтобы добавить комментарий
Торрент клиент
byTorrent - программа для загрузки торрент-файлов.

Скачать byTorrent.exe (1,5 МБ)

Скачать byTorrent.zip (0,6 МБ)

Поддержи torrent.by
российских рублей
(300 российских рублей это 4$)

Обратная связь rss

End game ©