↑↓torrent.by
Поиск
Логин:  Регистрация
Пароль:

Везучая / Lucky (2020) BDRip 1080p от MegaPeer | P

download Скачать торрент-файл   magnet Магнитная ссылка Размер: 5.93 GB Добавлен: 2024-02-09 11:00
Пиры будут получены из сети DHT
Последний сидер был замечен 2024-02-09 13:16
Информация Название: Везучая Оригинальное название: Lucky Год выхода: 2020 Жанр: Триллер, ужасы Режиссер: Наташа Кермани В ролях: Бриа Грант, Лейт М. Бурк, Дхрув Сингх, Хантер С. Смит, Чивонн Мишель, Ясмин Аль-Бустами, Каусар Мохаммед, Ларри Седар, Кристина Клебе, Кармен Анджелика, Тара Перри Описание: Мэй, автор книг по саморазвитию, никак не может получить от издателя аванс на следующую работу. В личной жизни у женщины, вроде бы, всё хорошо — прекрасный дом, любящий муж — но однажды ночью к ним вламывается убийца в маске. Супруг, кажется, этим совершенно не удивлён, да и полиция не спешит искать подозреваемого. После небольшой ссоры муж внезапно уходит из дома, Мэй остаётся одна, а вооружённый псих с ножом каждую ночь продолжает пытаться её убить. Страна: США Студия: Epic Pictures Group Продолжительность: 01:21:04 Перевод: Профессиональный (многоголосый, закадровый) | Студия Позитив | Файл Качество: BDRip 1080p Исходник: Lucky.2020.COMPLETE.BLURAY-UNTOUCHED Формат: MKV Кодек: MPEG-4 AVC Видео: 1920x804 (2.40:1), 23,976 fps, MPEG-4 AVC ~ 9067 Кbps avg, 0.245 bit/pixel Аудио: AC3, 48 kHz, 6 ch, ~384.00 kbps avg | русский | MVO | Аудио: E-AC3, 48 kHz, 6 ch, ~384.00 kbps avg | русский | MVO | Аудио: AC3, 48 kHz, 6 ch, ~640.00 kbps avg | английский | Субтитры: Русские ( Forced, Full), английские ( Full) Релиз:
[+] Инфо-файлОбщее Уникальный идентификатор : 199458221303155182565065589751774607704 (0x960E41902CF941FF99E28F3927E27958) Полное имя : Lucky.2020.1080p.BluRay.DD.5.1.x264-MegaPeer.mkv Формат : Matroska Версия формата : Version 4 Размер файла : 5,93 Гбайт Продолжительность : 1 ч. 21 м. Общий поток : 10,5 Мбит/сек Частота кадров : 23,976 кадра/сек Название фильма : Везучая / Lucky (2020) от stillet@MegaPeer Дата кодирования : 2023-10-30 01:41:04 UTC Программа кодирования : mkvmerge v15.0.0 ('Duel with the Devil') 64-bit Библиотека кодирования : libebml v1.3.5 + libmatroska v1.4.5 Обложка : Yes Attachments : cover.jpg Видео Идентификатор : 1 Формат : AVC Формат/Информация : Advanced Video Codec Профиль формата : High@L4.1 Настройки формата : CABAC / 5 Ref Frames Параметр CABAC формата : Да Параметр RefFrames формата : 5 кадров Идентификатор кодека : V_MPEG4/ISO/AVC Продолжительность : 1 ч. 21 м. Битрейт : 9 067 Кбит/сек Ширина : 1 920 пикселей Высота : 804 пикселя Соотношение сторон : 2,40:1 Режим частоты кадров : Постоянный Частота кадров : 23,976 (24000/1001) кадра/сек Цветовое пространство : YUV Субдискретизация насыщенности : 4:2:0 Битовая глубина : 8 бит Тип развёртки : Прогрессивная Бит/(Пиксели*Кадры) : 0.245 Размер потока : 5,13 Гбайт (87%) Заголовок : stillet@MegaPeer Библиотека кодирования : x264 core 164 r3106+55M stillet t_mod_New Настройки программы : cabac=1 / ref=5 / deblock=1:-3:-3 / analyse=0x3:0x113 / me=umh / subme=10 / psy=1 / fade_compensate=0.00 / psy_rd=1.03:0.02 / mixed_ref=1 / me_range=32 / chroma_me=1 / trellis=2 / 8x8dct=1 / cqm=0 / deadzone=21,11 / fast_pskip=0 / chroma_qp_offset=-3 / threads=12 / lookahead_threads=3 / sliced_threads=0 / nr=0 / decimate=0 / interlaced=0 / bluray_compat=0 / constrained_intra=0 / fgo=0 / bframes=10 / b_pyramid=2 / b_adapt=2 / b_bias=0 / direct=3 / weightb=1 / open_gop=0 / weightp=2 / keyint=240 / keyint_min=24 / scenecut=40 / intra_refresh=0 / rc_lookahead=40 / rc=2pass / mbtree=0 / bitrate=9067 / ratetol=1.0 / qcomp=0.60 / qpmin=0:0:0 / qpmax=69:69:69 / qpstep=4 / cplxblur=20.0 / qblur=0.5 / vbv_maxrate=50000 / vbv_bufsize=62500 / nal_hrd=none / filler=0 / ip_ratio=1.40 / pb_ratio=1.30 / aq=1:1.10 / aq-sensitivity=10.00 / aq-factor=1.00:1.00:1.00 / aq2=0 / aq3=0 Язык : German Default : Да Forced : Нет Аудио #1 Идентификатор : 2 Формат : AC-3 Формат/Информация : Audio Coding 3 Коммерческое название : Dolby Digital Идентификатор кодека : A_AC3 Продолжительность : 1 ч. 21 м. Вид битрейта : Постоянный Битрейт : 384 Кбит/сек Каналы : 6 каналов Channel layout : L R C LFE Ls Rs Частота : 48,0 КГц Частота кадров : 31,250 кадров/сек (1536 SPF) Метод сжатия : С потерями Размер потока : 223 Мбайт (4%) Заголовок : MVO | Позитив Язык : Russian Service kind : Complete Main Default : Да Forced : Да Аудио #2 Идентификатор : 3 Формат : E-AC-3 Формат/Информация : Enhanced AC-3 Коммерческое название : Dolby Digital Plus Идентификатор кодека : A_EAC3 Продолжительность : 1 ч. 21 м. Вид битрейта : Постоянный Битрейт : 384 Кбит/сек Каналы : 6 каналов Channel layout : L R C LFE Ls Rs Частота : 48,0 КГц Частота кадров : 31,250 кадров/сек (1536 SPF) Метод сжатия : С потерями Размер потока : 223 Мбайт (4%) Заголовок : MVO | Позитив Язык : Russian Service kind : Complete Main Default : Нет Forced : Нет Аудио #3 Идентификатор : 4 Формат : AC-3 Формат/Информация : Audio Coding 3 Коммерческое название : Dolby Digital Идентификатор кодека : A_AC3 Продолжительность : 1 ч. 21 м. Вид битрейта : Постоянный Битрейт : 640 Кбит/сек Каналы : 6 каналов Channel layout : L R C LFE Ls Rs Частота : 48,0 КГц Частота кадров : 31,250 кадров/сек (1536 SPF) Метод сжатия : С потерями Размер потока : 371 Мбайт (6%) Язык : English Service kind : Complete Main Default : Нет Forced : Нет Текст #1 Идентификатор : 5 Формат : UTF-8 Идентификатор кодека : S_TEXT/UTF8 Идентификатор кодека/Информация : UTF-8 Plain Text Продолжительность : 20 м. 44 с. Битрейт : 4 бит/сек Частота кадров : 0,010 кадр/сек Count of elements : 13 Размер потока : 631 байт (0%) Заголовок : Forced Язык : Russian Default : Да Forced : Да Текст #2 Идентификатор : 6 Формат : UTF-8 Идентификатор кодека : S_TEXT/UTF8 Идентификатор кодека/Информация : UTF-8 Plain Text Продолжительность : 1 ч. 17 м. Битрейт : 72 бит/сек Частота кадров : 0,131 кадр/сек Count of elements : 614 Размер потока : 41,1 Кбайт (0%) Заголовок : Full Язык : Russian Default : Нет Forced : Нет Текст #3 Идентификатор : 7 Формат : UTF-8 Идентификатор кодека : S_TEXT/UTF8 Идентификатор кодека/Информация : UTF-8 Plain Text Продолжительность : 1 ч. 15 м. Битрейт : 47 бит/сек Частота кадров : 0,199 кадр/сек Count of elements : 900 Размер потока : 26,2 Кбайт (0%) Заголовок : Full Язык : English Default : Нет Forced : Нет Меню 00:00:00.000 : ger: 01 00:07:41.793 : ger: 02 00:16:11.928 : ger: 03 00:24:01.397 : ger: 04 00:33:07.484 : ger: 05 00:39:53.349 : ger: 06 00:49:32.594 : ger: 07 00:53:43.302 : ger: 08 00:59:50.460 : ger: 09 01:04:34.954 : ger: 10 01:10:00.237 : ger: 11 01:17:23.055 : ger: 12 01:21:03.942 : ger: 13
[+] Скриншоты

Всего файлов в раздаче: 1 
Lucky.2020.1080p.BluRay.DD.5.1.x264-MegaPeer.mkv5.93 GB

Похожие раздачи по запросу - Везучая
2024-02-09 magnet Везучая / Lucky (2020) BDRip от MegaPeer | P 1.37 GB ↑ 0 ↓ 0
2023-10-05 magnet Диагноз «Везучая» [S01] (2023) WEB-DLRip 4.15 GB ↑ 0 ↓ 0

Комментарии


Зарегистрируйтесь чтобы добавить комментарий
Торрент клиент
byTorrent - программа для загрузки торрент-файлов.

Скачать byTorrent.exe (1,5 МБ)

Скачать byTorrent.zip (0,6 МБ)

Поддержи torrent.by
российских рублей
(300 российских рублей это 4$)

Обратная связь rss

End game ©