↑↓torrent.by
Поиск
Логин:  Регистрация
Пароль:

Капитан Марвел 2 / Марвели / The Marvels (2023) WEB-DL 1080p | D | IMAX | UKR

download Скачать торрент-файл   magnet Магнитная ссылка Размер: 5.57 GB Добавлен: 2024-02-09 11:00
Пиры будут получены из сети DHT
Последний сидер был замечен 2024-02-24 14:04
Информация о фильме Название: Капитан Марвел 2 Оригинальное название: The Marvels Год выхода: 2023 Жанр: фэнтези, боевик, приключения Режиссер: Ниа ДаКоста В ролях: Бри Ларсон, Тейона Паррис, Иман Веллани, Сэмюэл Л. Джексон, Зави Эштон, Гари Льюис, Пак Со-джун, Зенобия Шрофф, Мохан Капур, Саагар Шайх О фильме: Кэрол Дэнверс обретает свою отнятую тиранами Крии личность и мстит Высшему Разуму. Это приводят к тому, что Кэрол взваливает на свои плечи бремя дестабилизированной Вселенной. Когда она проходит через червоточину, которая должна вывести её на революционера из числа Крии, её силы переплетаются со способностями Камалы Хан, известной как Мисс Марвел, а также с племянницей Моникой Рамбо. Девушкам придётся научиться работать в команде, чтобы спасти Вселенную. Страна: США Студия: Industrial Light & Magic (ILM), Perception, ReelEye Company, RISE Visual Effects Studios, Sony Pictures Imageworks, Trixter Film, Visualskies, Weta Digital, Lifecast Продолжительность: 01:44:38 Перевод: Дублированный | Le Doyen (Украинский) Файл Кодек: x.264 Качество: WEB-DL 1080p Видео: AVC, 1920x1080 (16:9), 24.000 fps, 6 467 kb/s Аудио 1: AC3, 48.0 kHz, 6 ch, 384 kb/s | UKR Аудио 2: E-AC3 JOC, 48.0 kHz, 6 ch, 768 kb/s | ENG Субтитры: Украинские (forced, full), английские (forced, full, SDH) Трейлер
[+] MIGeneral Unique ID : 3364398966078677046730448469812945528 (0x287F5AD05C1BBA9A33CFB633105A278) Complete name : The.Marvels.(2023).IMAX.WEB-DL.1080p.Ukr.Eng..mkv Format : Matroska Format version : Version 4 File size : 5.57 GiB Duration : 1 h 44 min Overall bit rate mode : Variable Overall bit rate : 7 622 kb/s Movie name : The Marvels (2023) Encoded date : UTC 2024-02-07 16:56:14 Writing application : mkvmerge v82.0 ('I'm The President') 64-bit Writing library : libebml v1.4.5 + libmatroska v1.7.1 Cover : Yes Attachments : Cover.jpg Video ID : 1 Format : AVC Format/Info : Advanced Video Codec Format profile : High@L4 Format settings : CABAC / 4 Ref Frames Format settings, CABAC : Yes Format settings, Reference frames : 4 frames Codec ID : V_MPEG4/ISO/AVC Duration : 1 h 44 min Bit rate mode : Variable Bit rate : 6 467 kb/s Maximum bit rate : 12.7 Mb/s Width : 1 920 pixels Height : 1 080 pixels Display aspect ratio : 16:9 Frame rate mode : Constant Frame rate : 24.000 FPS Color space : YUV Chroma subsampling : 4:2:0 Bit depth : 8 bits Scan type : Progressive Bits/(Pixel*Frame) : 0.130 Stream size : 4.73 GiB (85%) Default : Yes Forced : No Color range : Limited Color primaries : BT.709 Transfer characteristics : BT.709 Matrix coefficients : BT.709 Audio #1 ID : 2 Format : AC-3 Format/Info : Audio Coding 3 Commercial name : Dolby Digital Codec ID : A_AC3 Duration : 1 h 44 min Bit rate mode : Constant Bit rate : 384 kb/s Channel(s) : 6 channels Channel layout : L R C LFE Ls Rs Sampling rate : 48.0 kHz Frame rate : 31.250 FPS (1536 SPF) Compression mode : Lossy Stream size : 287 MiB (5%) Title : DUB (Le Doyen) Language : Ukrainian Service kind : Complete Main Default : Yes Forced : No Audio #2 ID : 3 Format : E-AC-3 JOC Format/Info : Enhanced AC-3 with Joint Object Coding Commercial name : Dolby Digital Plus with Dolby Atmos Codec ID : A_EAC3 Duration : 1 h 44 min Bit rate mode : Constant Bit rate : 768 kb/s Channel(s) : 6 channels Channel layout : L R C LFE Ls Rs Sampling rate : 48.0 kHz Frame rate : 31.250 FPS (1536 SPF) Compression mode : Lossy Stream size : 575 MiB (10%) Title : Original Language : English Service kind : Complete Main Default : No Forced : No Complexity index : 16 Number of dynamic objects : 15 Bed channel count : 1 channel Bed channel configuration : LFE Text #1 ID : 4 Format : UTF-8 Codec ID : S_TEXT/UTF8 Codec ID/Info : UTF-8 Plain Text Duration : 1 h 33 min Bit rate : 1 b/s Count of elements : 20 Stream size : 802 Bytes (0%) Title : Forced Language : Ukrainian Default : Yes Forced : No Text #2 ID : 5 Format : UTF-8 Codec ID : S_TEXT/UTF8 Codec ID/Info : UTF-8 Plain Text Duration : 1 h 42 min Bit rate : 81 b/s Count of elements : 1227 Stream size : 60.7 KiB (0%) Title : Full Language : Ukrainian Default : No Forced : No Text #3 ID : 6 Format : UTF-8 Codec ID : S_TEXT/UTF8 Codec ID/Info : UTF-8 Plain Text Duration : 1 min 29 s Bit rate : 4 b/s Count of elements : 2 Stream size : 52.0 Bytes (0%) Title : Forced Language : English Default : No Forced : No Text #4 ID : 7 Format : UTF-8 Codec ID : S_TEXT/UTF8 Codec ID/Info : UTF-8 Plain Text Duration : 1 h 35 min Bit rate : 55 b/s Count of elements : 1373 Stream size : 38.7 KiB (0%) Title : Full Language : English Default : No Forced : No Text #5 ID : 8 Format : UTF-8 Codec ID : S_TEXT/UTF8 Codec ID/Info : UTF-8 Plain Text Duration : 1 h 44 min Bit rate : 65 b/s Count of elements : 1788 Stream size : 50.0 KiB (0%) Title : SDH Language : English Default : No Forced : No Menu 00:14:04.588 : en:Scene 1 00:21:59.338 : en:Scene 2 00:35:47.380 : en:Scene 3 00:50:23.797 : en:Scene 4 00:58:48.547 : en:Scene 5 01:09:43.505 : en:Scene 6 01:14:25.297 : en:Scene 7 01:27:18.547 : en:Scene 8 01:33:06.588 : en:Credits 01:35:48.088 : en:Post-Credits Scene
[+] Скриншоты

Всего файлов в раздаче: 1 
The.Marvels.(2023).IMAX.WEB-DL.1080p.Ukr.Eng.[Hurtom].mkv5.57 GB

Похожие раздачи по запросу - Капитан
2024-02-14 magnet Капитан Марвел 2 / The Marvels (2023) BDRip 1080p от Generalfilm | D 11.13 GB ↑ 0 ↓ 0
2024-02-14 magnet Капитан Марвел 2 / Марвели / The Marvels (2023) UHD BDRemux 2160p | 4K | HDR | D | UKR 42.06 GB ↑ 0 ↓ 0
2024-02-10 magnet Капитан Марвел 2 / Марвели / The Marvels (2023) BDRip 1080p | D | UKR 6.81 GB ↑ 0 ↓ 0
2024-02-08 magnet Капитан Марвел 2 / The Marvels (2023) WEB-DLRip-AVC от DoMiNo & селезень | D | MovieDalen, Red Head Sound | IMAX 2.07 GB ↑ 0 ↓ 0
2024-02-08 magnet Капитан Марвел 2 / The Marvels (2023) UHD BDRemux 2160p от селезень | 4K | HDR | D 42.58 GB ↑ 0 ↓ 0
2024-02-08 magnet Капитан Марвел 2 / The Marvels (2023) BDRemux 1080p от селезень | D 27.34 GB ↑ 0 ↓ 0
2024-02-08 magnet Капитан Марвел 2 / The Marvels (2023) WEB-DL 1080p от селезень | D | MovieDalen, Red Head Sound | IMAX 6.08 GB ↑ 0 ↓ 0

Комментарии


Зарегистрируйтесь чтобы добавить комментарий
Торрент клиент
byTorrent - программа для загрузки торрент-файлов.

Скачать byTorrent.exe (1,5 МБ)

Скачать byTorrent.zip (0,6 МБ)

Поддержи torrent.by
российских рублей
(300 российских рублей это 4$)

Обратная связь rss

End game ©