↑↓torrent.by
Поиск
Логин:  Регистрация
Пароль:

Крайне опасен / Wanted Man (2024) BDRip 1080p от MegaPeer | D, P2

download Скачать торрент-файл   magnet Магнитная ссылка Размер: 6.54 GB Добавлен: 2024-02-09 11:00
Пиры будут получены из сети DHT
Последний сидер был замечен 2024-02-13 01:40
«Некоторые границы лучше не пересекать» Информация Название: Крайне опасен Оригинальное название: Wanted Man Год выхода: 2024 Жанр: Боевик, триллер Режиссер: Дольф Лундгрен В ролях: Дольф Лундгрен, Кристина Вилла, Келси Грэммер, Майкл Паре, Роджер Кросс, Аарон МакФерсон, Рокко Рейс, Джеймс Джозеф Пулидо, Хосе Трухильо, Даньела Сото Вель Описание: Офицер полиции получает задание найти и защитить девушку, ставшую свидетельницей перестрелки с наркокартелем, в которой погибли несколько агентов Управления по борьбе с наркотиками. И без того непростая ситуация осложняется, когда офицер выясняет, что за атакой на самом деле стояли спецслужбы. Страна: США Студия: Davis Film, Millennium Media, Red Orm Productions Inc., Thor Pictures, Wonder Street Продолжительность: 01:25:17 Перевод: * Профессиональный (полное дублирование) | Официальный по заказу Вольга | Кинопоиск HD * Профессиональный (двухголосый, закадровый) | ViruseProject | 18+ Файл Качество: BDRip 1080p Исходник: Wanted.Man.2024.MULTi.COMPLETE.BLURAY-SharpHD Формат: MKV Кодек: MPEG-4 AVC Видео: 1920x804 (2.40:1), 23.976 fps, MPEG-4 AVC ~ 8990 Kbps avg, 0.243 bit/pixel Аудио: AC3, 48 kHz, 6 ch, ~448.00 kbps avg | русский | DUB | Аудио: E-AC3, 48 kHz, 6 ch, ~448.00 kbps avg | русский | DUB | Аудио: AC3, 48 kHz, 6 ch, ~448.00 kbps avg | русский | DVO |18+ Аудио: AC3, 48 kHz, 6 ch, ~640.00 kbps avg | английский | Субтитры: Русские (Forced, Full), Английские (Full, SDH)
[+] Инфо-файлОбщее Уникальный идентификатор : 243819006463879342586751959221859972153 (0xB76DD522630E542799853F411C32F439) Полное имя : Wanted.Man.2024.1080p.BluRay.DD.5.1.x264-MegaPeer.mkv Формат : Matroska Версия формата : Version 4 Размер файла : 6,54 Гбайт Продолжительность : 1 ч. 25 м. Общий поток : 11,0 Мбит/сек Частота кадров : 23,976 кадра/сек Название фильма : Крайне опасен / Wanted Man (2024) от stillet@MegaPeer Дата кодирования : 2024-02-09 00:12:35 UTC Программа кодирования : mkvmerge v15.0.0 ('Duel with the Devil') 64-bit Библиотека кодирования : libebml v1.3.5 + libmatroska v1.4.5 Обложка : Yes Attachments : cover.jpg Видео Идентификатор : 1 Формат : AVC Формат/Информация : Advanced Video Codec Профиль формата : High@L4.1 Настройки формата : CABAC / 5 Ref Frames Параметр CABAC формата : Да Параметр RefFrames формата : 5 кадров Идентификатор кодека : V_MPEG4/ISO/AVC Продолжительность : 1 ч. 25 м. Битрейт : 8 990 Кбит/сек Ширина : 1 920 пикселей Высота : 804 пикселя Соотношение сторон : 2,40:1 Режим частоты кадров : Постоянный Частота кадров : 23,976 (24000/1001) кадра/сек Цветовое пространство : YUV Субдискретизация насыщенности : 4:2:0 Битовая глубина : 8 бит Тип развёртки : Прогрессивная Бит/(Пиксели*Кадры) : 0.243 Размер потока : 5,35 Гбайт (82%) Библиотека кодирования : x264 core 164 r3156+57M stillet t_mod_New Настройки программы : cabac=1 / ref=5 / deblock=1:-3:-3 / analyse=0x3:0x113 / me=umh / subme=10 / psy=1 / fade_compensate=0.00 / psy_rd=1.02:0.01 / mixed_ref=1 / me_range=32 / chroma_me=1 / trellis=2 / 8x8dct=1 / cqm=0 / deadzone=21,11 / fast_pskip=0 / chroma_qp_offset=-3 / threads=12 / lookahead_threads=3 / sliced_threads=0 / nr=0 / decimate=0 / interlaced=0 / bluray_compat=0 / constrained_intra=0 / fgo=0 / bframes=11 / b_pyramid=2 / b_adapt=2 / b_bias=0 / direct=3 / weightb=1 / open_gop=0 / weightp=2 / keyint=240 / keyint_min=24 / scenecut=40 / intra_refresh=0 / rc_lookahead=40 / rc=2pass / mbtree=0 / bitrate=8990 / ratetol=1.0 / qcomp=0.60 / qpmin=0:0:0 / qpmax=69:69:69 / qpstep=4 / cplxblur=20.0 / qblur=0.5 / vbv_maxrate=50000 / vbv_bufsize=62500 / nal_hrd=none / filler=0 / ip_ratio=1.40 / pb_ratio=1.30 / aq=1:1.10 / aq-sensitivity=10.00 / aq-factor=1.00:1.00:1.00 / aq2=0 / aq3=0 Язык : English Default : Да Forced : Нет Аудио #1 Идентификатор : 2 Формат : AC-3 Формат/Информация : Audio Coding 3 Коммерческое название : Dolby Digital Идентификатор кодека : A_AC3 Продолжительность : 1 ч. 25 м. Вид битрейта : Постоянный Битрейт : 448 Кбит/сек Каналы : 6 каналов Channel layout : L R C LFE Ls Rs Частота : 48,0 КГц Частота кадров : 31,250 кадров/сек (1536 SPF) Метод сжатия : С потерями Размер потока : 273 Мбайт (4%) Заголовок : DUB | Кинопоиск HD Язык : Russian Service kind : Complete Main Default : Да Forced : Да Аудио #2 Идентификатор : 3 Формат : E-AC-3 Формат/Информация : Enhanced AC-3 Коммерческое название : Dolby Digital Plus Идентификатор кодека : A_EAC3 Продолжительность : 1 ч. 25 м. Вид битрейта : Постоянный Битрейт : 448 Кбит/сек Каналы : 6 каналов Channel layout : L R C LFE Ls Rs Частота : 48,0 КГц Частота кадров : 31,250 кадров/сек (1536 SPF) Метод сжатия : С потерями Размер потока : 273 Мбайт (4%) Заголовок : DUB | Кинопоиск HD Язык : Russian Service kind : Complete Main Default : Нет Forced : Нет Аудио #3 Идентификатор : 4 Формат : AC-3 Формат/Информация : Audio Coding 3 Коммерческое название : Dolby Digital Идентификатор кодека : A_AC3 Продолжительность : 1 ч. 25 м. Вид битрейта : Постоянный Битрейт : 448 Кбит/сек Каналы : 6 каналов Channel layout : L R C LFE Ls Rs Частота : 48,0 КГц Частота кадров : 31,250 кадров/сек (1536 SPF) Метод сжатия : С потерями Размер потока : 273 Мбайт (4%) Заголовок : DVO | ViruseProject | 18+ Язык : Russian Service kind : Complete Main Default : Нет Forced : Нет Аудио #4 Идентификатор : 5 Формат : AC-3 Формат/Информация : Audio Coding 3 Коммерческое название : Dolby Digital Идентификатор кодека : A_AC3 Продолжительность : 1 ч. 25 м. Вид битрейта : Постоянный Битрейт : 640 Кбит/сек Каналы : 6 каналов Channel layout : L R C LFE Ls Rs Частота : 48,0 КГц Частота кадров : 31,250 кадров/сек (1536 SPF) Метод сжатия : С потерями Размер потока : 390 Мбайт (6%) Язык : English Service kind : Complete Main Default : Нет Forced : Нет Текст #1 Идентификатор : 6 Формат : UTF-8 Идентификатор кодека : S_TEXT/UTF8 Идентификатор кодека/Информация : UTF-8 Plain Text Продолжительность : 35 м. 3 с. Битрейт : 5 бит/сек Частота кадров : 0,012 кадр/сек Count of elements : 25 Размер потока : 1,42 Кбайт (0%) Заголовок : Forced Язык : Russian Default : Да Forced : Да Текст #2 Идентификатор : 7 Формат : UTF-8 Идентификатор кодека : S_TEXT/UTF8 Идентификатор кодека/Информация : UTF-8 Plain Text Продолжительность : 1 ч. 21 м. Битрейт : 90 бит/сек Частота кадров : 0,255 кадр/сек Count of elements : 1252 Размер потока : 54,0 Кбайт (0%) Заголовок : Full Язык : Russian Default : Нет Forced : Нет Текст #3 Идентификатор : 8 Формат : UTF-8 Идентификатор кодека : S_TEXT/UTF8 Идентификатор кодека/Информация : UTF-8 Plain Text Продолжительность : 1 ч. 21 м. Битрейт : 56 бит/сек Частота кадров : 0,266 кадр/сек Count of elements : 1298 Размер потока : 33,7 Кбайт (0%) Заголовок : Full Язык : English Default : Нет Forced : Нет Текст #4 Идентификатор : 9 Формат : UTF-8 Идентификатор кодека : S_TEXT/UTF8 Идентификатор кодека/Информация : UTF-8 Plain Text Продолжительность : 1 ч. 24 м. Битрейт : 59 бит/сек Частота кадров : 0,288 кадр/сек Count of elements : 1454 Размер потока : 36,9 Кбайт (0%) Заголовок : SDH Язык : English Default : Нет Forced : Нет Меню 00:00:00.000 : Chapter 01 00:07:26.403 : Chapter 02 00:14:08.138 : Chapter 03 00:21:26.451 : Chapter 04 00:29:02.281 : Chapter 05 00:35:13.610 : Chapter 06 00:41:40.706 : Chapter 07 00:48:57.934 : Chapter 08 00:55:42.088 : Chapter 09 01:04:10.346 : Chapter 10 01:10:42.820 : Chapter 11 01:17:11.710 : Chapter 12 01:25:17.069 : Chapter 13
Релиз:

Всего файлов в раздаче: 1 
Wanted.Man.2024.1080p.BluRay.DD.5.1.x264-MegaPeer.mkv6.54 GB

Похожие раздачи по запросу - Крайне
2024-02-10 magnet Крайне опасен / Wanted Man (2024) HDRip от ExKinoRay | D 747.55 MB ↑ 0 ↓ 0
2024-02-09 magnet Крайне опасен / Особо опасный человек / Wanted Man (2024) BDRip 720p от DoMiNo & селезень | D 2.81 GB ↑ 0 ↓ 0
2024-02-09 magnet Крайне опасен / Особо опасный человек / Wanted Man (2024) BDRip-AVC от DoMiNo & селезень | D, P2 2К1.61 GB ↑ 0 ↓ 0
2024-02-09 magnet Крайне опасен / Wanted Man (2024) BDRip 720p от MegaPeer | D, P2 3.29 GB ↑ 0 ↓ 0
2024-02-09 magnet Крайне опасен / Wanted Man (2024) BDRip от MegaPeer | D 1.46 GB ↑ 0 ↓ 0
2024-02-02 magnet Крайне опасен / Особо опасный человек / Wanted Man (2024) WEB-DL 1080p от селезень | D 3.27 GB ↑ 0 ↓ 0
2024-02-02 magnet Крайне опасен / Особо опасный человек / Wanted Man (2024) UHD WEB-DL-HEVC 2160p от селезень | 4K | SDR | D 7.24 GB ↑ 0 ↓ 0

Комментарии


Зарегистрируйтесь чтобы добавить комментарий
Торрент клиент
byTorrent - программа для загрузки торрент-файлов.

Скачать byTorrent.exe (1,5 МБ)

Скачать byTorrent.zip (0,6 МБ)

Поддержи torrent.by
российских рублей
(300 российских рублей это 4$)

Обратная связь rss

End game ©