↑↓torrent.by
Поиск
Логин:  Регистрация
Пароль:

Самозванка / Some Other Woman (2023) UHD WEB-DL-HEVC 2160p от селезень | 4K | SDR | D

download Скачать торрент-файл   magnet Магнитная ссылка Размер: 7.25 GB Добавлен: 2024-02-09 11:00
Пиры будут получены из сети DHT
Последний сидер был замечен 2024-02-13 18:44
Информация о фильме Название: Самозванка Оригинальное название: Some Other Woman Год выхода: 2023 Жанр: триллер Режиссер: Джоэль Мур В ролях: Эшли Грин, Том Фелтон, Аманда Крю, Рик Фокс, Брук Лайонс, Саманта Бэнтон, Эмбер Эшли Смит, Каролина Рейно, Джим Ригли, Jeton Bennett О фильме: Ева и Питер переезжают на тропический остров, чтобы Питер мог строить там карьеру. Ради мужа Ева вынуждена отказаться от своих профессиональных амбиций, что мешает ей искренне радоваться его успехам. После очередного выкидыша Ева и вовсе впадает в депрессию. Однажды она замечает около дома незнакомку, отдаленно похожую на саму Еву. С этого времени в жизни героини начинает происходить что-то странное: воспоминания о прошлой жизни постепенно исчезают из памяти, а загадочная женщина подходит все ближе. Кажется, что она хочет занять место Евы… Страна: США Студия: Balcony 9 Productions, Productivity Media Продолжительность: 01:22:21 Перевод: Дублированный | Pride Production Качество: WEB-DL 2160p Видео: 3840x2160 at 25.000 fps, MPEG-H HEVC SDR Video, 11800 kbps Аудио #01: 48 kHz, AC3, 5.1, 384 Kbps | Дублированный | RUS | Аудио #02: 48 kHz, AC3, 5.1, 384 Kbps | Оригинал | ENG | Субтитры: Русские (Full)
[+] MIGeneral Unique ID : 76197906492218953943877746348337446825 (0x39532ED7DCC3FFA57A9884E81488BFA9) Complete name : H:VideoHSome.Other.Woman.2023.WEB-DL.2160p.SDR.seleZen.mkv Format : Matroska Format version : Version 4 File size : 7.25 GiB Duration : 1 h 22 min Overall bit rate : 12.6 Mb/s Frame rate : 25.000 FPS Movie name : Some Other Woman 2023 from seleZen Encoded date : 2024-02-09 01:15:12 UTC Writing application : mkvmerge v80.0 ('Roundabout') 64-bit Writing library : libebml v1.4.4 + libmatroska v1.7.1 Video ID : 1 Format : HEVC Format/Info : High Efficiency Video Coding Format profile : Main@L5@Main Codec ID : V_MPEGH/ISO/HEVC Duration : 1 h 22 min Bit rate : 11.8 Mb/s Width : 3 840 pixels Height : 2 160 pixels Display aspect ratio : 16:9 Frame rate mode : Constant Frame rate : 25.000 FPS Color space : YUV Chroma subsampling : 4:2:0 Bit depth : 8 bits Bits/(Pixel*Frame) : 0.057 Stream size : 6.81 GiB (94%) Writing library : x265 3.5+1-f0c1022b6: 8bit+10bit+12bit Encoding settings : cpuid=1111039 / frame-threads=3 / wpp / no-pmode / no-pme / no-psnr / no-ssim / log-level=2 / input-csp=1 / input-res=3840x2160 / interlace=0 / total-frames=0 / level-idc=0 / high-tier=1 / uhd-bd=0 / ref=4 / no-allow-non-conformance / repeat-headers / annexb / no-aud / no-hrd / info / hash=0 / no-temporal-layers / no-open-gop / min-keyint=50 / keyint=50 / gop-lookahead=0 / bframes=3 / b-adapt=0 / b-pyramid / bframe-bias=0 / rc-lookahead=25 / lookahead-slices=4 / scenecut=0 / hist-scenecut=0 / radl=0 / no-splice / no-intra-refresh / ctu=64 / min-cu-size=8 / rect / no-amp / max-tu-size=32 / tu-inter-depth=1 / tu-intra-depth=1 / limit-tu=0 / rdoq-level=2 / dynamic-rd=0.00 / no-ssim-rd / signhide / no-tskip / nr-intra=0 / nr-inter=0 / no-constrained-intra / strong-intra-smoothing / max-merge=3 / limit-refs=3 / limit-modes / me=2 / subme=3 / merange=57 / temporal-mvp / no-frame-dup / no-hme / weightp / no-weightb / no-analyze-src-pics / deblock=0:0 / sao / no-sao-non-deblock / rd=3 / selective-sao=4 / no-early-skip / rskip / no-fast-intra / no-tskip-fast / no-cu-lossless / no-b-intra / no-splitrd-skip / rdpenalty=0 / psy-rd=2.00 / psy-rdoq=0.00 / no-rd-refine / no-lossless / cbqpoffs=0 / crqpoffs=0 / rc=abr / bitrate=12000 / qcomp=0.80 / qpstep=4 / stats-write=0 / stats-read=2 / cplxblur=20.0 / qblur=0.5 / vbv-maxrate=18000 / vbv-bufsize=24000 / vbv-init=0.8 / min-vbv-fullness=50.0 / max-vbv-fullness=80.0 / ipratio=1.40 / pbratio=1.30 / aq-mode=2 / aq-strength=1.00 / cutree / zone-count=0 / no-strict-cbr / qg-size=32 / no-rc-grain / qpmax=69 / qpmin=1 / no-const-vbv / sar=0 / overscan=0 / videoformat=5 / range=0 / colorprim=2 / transfer=2 / colormatrix=2 / chromaloc=0 / display-window=0 / cll=0,0 / min-luma=0 / max-luma=255 / log2-max-poc-lsb=8 / vui-timing-info / vui-hrd-info / slices=1 / no-opt-qp-pps / no-opt-ref-list-length-pps / no-multi-pass-opt-rps / scenecut-bias=0.05 / hist-threshold=0.03 / no-opt-cu-delta-qp / no-aq-motion / no-hdr10 / no-hdr10-opt / no-dhdr10-opt / no-idr-recovery-sei / analysis-reuse-level=0 / analysis-save-reuse-level=0 / analysis-load-reuse-level=0 / scale-factor=0 / refine-intra=0 / refine-inter=0 / refine-mv=1 / refine-ctu-distortion=0 / no-limit-sao / ctu-info=0 / no-lowpass-dct / refine-analysis-type=0 / copy-pic=1 / max-ausize-factor=1.0 / no-dynamic-refine / no-single-sei / no-hevc-aq / no-svt / no-field / qp-adaptation-range=1.00 / scenecut-aware-qp=0conformance-window-offsets / right=0 / bottom=0 / decoder-max-rate=0 / no-vbv-live-multi-pass Language : English Default : Yes Forced : No Color range : Limited Audio #1 ID : 2 Format : AC-3 Format/Info : Audio Coding 3 Commercial name : Dolby Digital Codec ID : A_AC3 Duration : 1 h 22 min Bit rate mode : Constant Bit rate : 384 kb/s Channel(s) : 6 channels Channel layout : L R C LFE Ls Rs Sampling rate : 48.0 kHz Frame rate : 31.250 FPS (1536 SPF) Compression mode : Lossy Stream size : 226 MiB (3%) Title : Dub Language : Russian Service kind : Complete Main Default : Yes Forced : No Audio #2 ID : 3 Format : AC-3 Format/Info : Audio Coding 3 Commercial name : Dolby Digital Codec ID : A_AC3 Duration : 1 h 22 min Bit rate mode : Constant Bit rate : 384 kb/s Channel(s) : 6 channels Channel layout : L R C LFE Ls Rs Sampling rate : 48.0 kHz Frame rate : 31.250 FPS (1536 SPF) Compression mode : Lossy Stream size : 226 MiB (3%) Title : Original Language : English Service kind : Complete Main Default : No Forced : No Text ID : 4 Format : UTF-8 Codec ID : S_TEXT/UTF8 Codec ID/Info : UTF-8 Plain Text Duration : 1 h 18 min Bit rate : 81 b/s Frame rate : 0.248 FPS Count of elements : 1167 Stream size : 46.6 KiB (0%) Title : Full Language : Russian Default : No Forced : No
Релиз: Присоединяйся к: Кликай на баннеры.

Всего файлов в раздаче: 1 
Some.Other.Woman.2023.WEB-DL.2160p.SDR.seleZen.mkv7.25 GB

Похожие раздачи по запросу - Самозванка
2024-02-15 magnet Самозванка / Some Other Woman (2023) WEB-DLRip от toxics | D 743.70 MB ↑ 0 ↓ 0
2024-02-09 magnet Самозванка / Some Other Woman (2023) WEB-DLRip 720p от DoMiNo & селезень | D 1.98 GB ↑ 0 ↓ 0
2024-02-09 magnet Самозванка / Some Other Woman (2023) WEB-DLRip 1080p от селезень | D 6.14 GB ↑ 0 ↓ 0
2024-02-09 magnet Самозванка / Some Other Woman (2023) WEB-DLRip от ELEKTRI4KA | D 1.37 GB ↑ 1 ↓ 0
2024-02-09 magnet Самозванка / Some Other Woman (2023) WEB-DL 1080p от ELEKTRI4KA | D 3.23 GB ↑ 0 ↓ 0

Комментарии


Зарегистрируйтесь чтобы добавить комментарий
Торрент клиент
byTorrent - программа для загрузки торрент-файлов.

Скачать byTorrent.exe (1,5 МБ)

Скачать byTorrent.zip (0,6 МБ)

Поддержи torrent.by
российских рублей
(300 российских рублей это 4$)

Обратная связь rss

End game ©