↑↓torrent.by
Поиск
Логин:  Регистрация
Пароль:

Планета Ка-Пэкс / K-Pax (2001) D-TheaterRip-AVC | P

download Скачать торрент-файл   magnet Магнитная ссылка Размер: 745.39 MB Добавлен: 2024-02-09 17:00
Пиры будут получены из сети DHT
Последний сидер был замечен 2024-02-14 19:47
Информация о фильме Название: Планета Ка-Пэкс Оригинальное название: K-PAX Год выхода: 2001 Жанр: фантастика, драма, детектив Режиссер: Иэн Софтли / Iain Softley В ролях: Кевин Спейси, Джефф Бриджес, Мэри МакКормак, Элфри Вудард, Дэвид Патрик Келли, Сол Уильямс, Питер Герети, Селия Уэстон, Аджай Найду, Трэйси Вилар Описание: В Манхэттенский психиатрический институт привозят странного человека в черных очках. Он зовет себя Протом и утверждает, что его родина — далекая планета Ка-Пэкс, откуда он мгновенно перенесся на Землю в луче света. Несмотря на все усилия, опытному доктору Пауэллу не удается разгадать загадку таинственного пациента, который охотно и весьма убедительно доказывает всем свое внеземное происхождение и заранее назначает дату своего возвращения на Ка-Пэкс. Вскоре Марка Пауэлла, так и не сумевшего приоткрыть тайну личности своего самого удивительного подопечного, начинает тревожить невероятная, но навязчивая мысль: может быть, Прот вовсе не сумасшедший и в его словах есть доля правды… Страна: Германия, США Студия: Universal, IMF Internationale Medien und Film GmbH & Co. 2. Produktions KG, Intermedia Films Продолжительность: 02:00:21 Перевод: Профессиональный (многоголосый, закадровый) - LDV Файл Формат: MKV Качество: D-TheaterRip-AVC Видео: AVC, 752x320 (2,35:1) at 23,976 fps, ~788 kbps, 0.137 bpp Аудио: AAC-HE, 2 ch, 48 kHz, ~76 kbps Субтитры: русские, английские (softsub SRT) Семпл
[+] MediaInfoОбщее Уникальный идентификатор : 119357192879951428690230104688522744170 (0x59CB5BF384C8189EB7AD62FBCA94D16A) Полное имя : K-Pax.2001.D-TheaterRip-AVC.mkv Формат : Matroska Версия формата : Version 4 Размер файла : 745 Мбайт Продолжительность : 2 ч. 0 м. Общий поток : 866 Кбит/сек Частота кадров : 23,976 кадра/сек Название фильма : Планета Ка-Пэкс, 2001 Описание : В Манхэттенский психиатрический институт привозят странного человека в черных очках. Он зовет себя Протом и утверждает, что его родина - далекая планета Ка-Пэкс, откуда он мгновенно перенесся на Землю в луче света. Несмотря на все усилия, опытному доктору Пауэллу не удается разгадать загадку таинственного пациента, который охотно и весьма убедительно доказывает всем свое внеземное происхождение и заранее назначает дату своего возвращения на Ка-Пэкс. Дата кодирования : 2024-02-08 08:56:34 UTC Программа кодирования : mkvmerge v82.0 ('I'm The President') 64-bit Библиотека кодирования : libebml v1.4.5 + libmatroska v1.7.1 ACTORS : Кевин Спейси, Джефф Бриджес, Мэри МакКормак, Элфри Вудард, Дэвид Патрик Келли, Сол Уильямс, Питер Герети, Селия Уэстон, Аджай Найду, Трэйси Вилар COMPOSER : Эд Ширмёр COUNTRY : Германия, США DIRECTOR : Иэн Софтли GENRE : фантастика, драма, детектив WRITER : Чарльз Ливитт, Джин Брюэр Видео Идентификатор : 1 Формат : AVC Формат/Информация : Advanced Video Codec Профиль формата : High@L4.1 Настройки формата : CABAC / 12 Ref Frames Параметр CABAC формата : Да Параметр RefFrames формата : 12 кадров Идентификатор кодека : V_MPEG4/ISO/AVC Продолжительность : 2 ч. 0 м. Битрейт : 788 Кбит/сек Ширина : 752 пикселя Высота : 320 пикселей Соотношение сторон : 2,35:1 Режим частоты кадров : Постоянный Частота кадров : 23,976 (24000/1001) кадра/сек Цветовое пространство : YUV Субдискретизация насыщенности : 4:2:0 Битовая глубина : 8 бит Тип развёртки : Прогрессивная Бит/(Пиксели*Кадры) : 0.137 Размер потока : 678 Мбайт (91%) Заголовок : K-PAX.2001.D-TheaterRip.x264. Библиотека кодирования : x264 core 164 r3107 a8b68ebf Настройки программы : cabac=1 / ref=12 / deblock=1:-3:-3 / analyse=0x3:0x133 / me=umh / subme=11 / psy=1 / psy_rd=1.00:0.05 / mixed_ref=1 / me_range=32 / chroma_me=1 / trellis=2 / 8x8dct=1 / cqm=0 / deadzone=21,11 / fast_pskip=0 / chroma_qp_offset=-3 / threads=6 / lookahead_threads=1 / sliced_threads=0 / nr=0 / decimate=0 / interlaced=0 / bluray_compat=0 / constrained_intra=0 / bframes=9 / b_pyramid=2 / b_adapt=2 / b_bias=0 / direct=3 / weightb=1 / open_gop=0 / weightp=2 / keyint=240 / keyint_min=23 / scenecut=40 / intra_refresh=0 / rc_lookahead=40 / rc=2pass / mbtree=1 / bitrate=788 / ratetol=1.0 / qcomp=0.60 / qpmin=0 / qpmax=69 / qpstep=4 / cplxblur=20.0 / qblur=0.5 / vbv_maxrate=50000 / vbv_bufsize=62500 / nal_hrd=none / filler=0 / ip_ratio=1.40 / aq=1:1.00 Язык : English Default : Да Forced : Нет Цветовой диапазон : Limited Основные цвета : BT.709 Характеристики трансфера : BT.709 Коэффициенты матрицы : BT.709 Аудио Идентификатор : 2 Формат : AAC LC SBR Формат/Информация : Advanced Audio Codec Low Complexity with Spectral Band Replication Коммерческое название : HE-AAC Настройки формата : Explicit Идентификатор кодека : A_AAC-2 Продолжительность : 2 ч. 0 м. Битрейт : 76,0 Кбит/сек Каналы : 2 канала Channel layout : L R Частота : 48,0 КГц Частота кадров : 23,438 кадра/сек (2048 SPF) Метод сжатия : С потерями Задержка видео : 31 мс. Размер потока : 65,3 Мбайт (9%) Заголовок : MVO | LDV Язык : Russian Default : Да Forced : Нет Текст #1 Идентификатор : 3 Формат : UTF-8 Идентификатор кодека : S_TEXT/UTF8 Идентификатор кодека/Информация : UTF-8 Plain Text Продолжительность : 1 ч. 52 м. Битрейт : 72 бит/сек Частота кадров : 0,164 кадр/сек Count of elements : 1105 Размер потока : 59,5 Кбайт (0%) Язык : Russian Default : Нет Forced : Нет Текст #2 Идентификатор : 4 Формат : UTF-8 Идентификатор кодека : S_TEXT/UTF8 Идентификатор кодека/Информация : UTF-8 Plain Text Продолжительность : 1 ч. 52 м. Битрейт : 58 бит/сек Частота кадров : 0,203 кадр/сек Count of elements : 1369 Размер потока : 47,9 Кбайт (0%) Язык : English Default : Нет Forced : Нет Меню 00:00:00.000 : en:Main Titles 00:02:09.400 : en:I Didn't Arrive By Train 00:09:19.309 : en:Why Did You Come to This Planet? 00:18:13.342 : en:A Painful Procedure 00:23:34.121 : en:A Lot Like Home 00:36:19.884 : en:Twin Solar System 00:43:24.811 : en:Blue Bird 00:47:16.625 : en:Planning to Return 00:52:23.724 : en:The Fourth of July 00:59:38.377 : en:The Sprinklers 01:07:00.892 : en:Hypnosis 01:14:32.102 : en:Sarah 01:22:39.705 : en:27Th July 1996 01:27:34.958 : en:Robert Porter 01:37:22.503 : en:Connected 01:47:14.887 : en:A Beam of Light 01:51:33.020 : en:This Time Is All You Have 01:55:17.994 : en:End Titles 01:59:14.689 : en:The End
[+] Скриншоты

Всего файлов в раздаче: 1 
K-Pax.2001.D-TheaterRip-AVC.mkv745.39 MB

Похожие раздачи по запросу - Планета
2024-02-09 magnet Планета Ка-Пэкс / K-Pax (2001) HD-DVDRip 1080p | P, P2, A 1К14.86 GB ↑ 0 ↓ 0
2023-12-25 magnet Планета Максимус (2023) WEB-DL 1080p 3.61 GB ↑ 0 ↓ 0
2023-12-16 magnet Зореслав Степанов - Опасная планета (2023) MP3 439.73 MB ↑ 0 ↓ 0
2023-01-11 magnet Планета 51 / Planet 51 (2009) WEB-DL 1080p | D | Open Matte 4.03 GB ↑ 0 ↓ 0
2021-07-30 magnet BBC: Семь миров, одна планета / Seven Worlds, One Planet [S01] (2019) BDRip 1080p | FocusX 32.41 GB ↑ 1 ↓ 0

Комментарии


Зарегистрируйтесь чтобы добавить комментарий
Торрент клиент
byTorrent - программа для загрузки торрент-файлов.

Скачать byTorrent.exe (1,5 МБ)

Скачать byTorrent.zip (0,6 МБ)

Поддержи torrent.by
российских рублей
(300 российских рублей это 4$)

Обратная связь rss

End game ©