↑↓torrent.by
Поиск
Логин:  Регистрация
Пароль:

Чужие против Хищника: Реквием / AVPR: Aliens vs Predator - Requiem (2007) WEB-DLRip-AVC от DoMiNo | D | Open Matte | Театральная версия

download Скачать торрент-файл   magnet Магнитная ссылка Размер: 1.45 GB Добавлен: 2024-02-09 17:00
Пиры будут получены из сети DHT
Последний сидер был замечен 2024-02-10 21:56
Информация о фильме Название: Чужие против Хищника: Реквием Оригинальное название: AVPR: Aliens vs Predator - Requiem Год выхода: 2007 Жанр: ужасы, фантастика, боевик, триллер Режиссер: Колин Штраус, Грег Штраус В ролях: Стивен Паскуале, Рейко Эйлсворт, Джон Ортиз, Джонни Льюис, Эриель Гейд, Кристен Хагер, Сэм Траммелл, Роберт Джой, Дэвид Петкау, Том Вудрафф мл. О фильме: Атакованный «Предалиеном» — жутким гибридом Хищника и Чужого — корабль Хищников терпит крушение в лесах, окружающих маленький городок штата Колорадо. И пока на сигнал о помощи, посланный в момент падения, спешит подкрепление, Чужие успевают инфицировать половину населения города. Страна: США Студия: Twentieth Century Fox Film Corporation, Davis Entertainment, Brandywine Productionst Продолжительность: 01:33:47 Перевод: Дубляж Субтитры: Русские (full), английские (full) Файл Формат: Matroska Качество: WEB-DLRip-AVC | Open Matte Видео: 1024x576 at 23.976 fps, x264, ~1766 kbps, 0.125 bpp Аудио: AC3, 6 ch, ~448 kbps - | Русский | - Формат субтитров: softsub (SRT) ***Релиз от: -=DoMiNo=-
[+] Примечание & Сравнения:Исходник видео Amazon STARZ - периодически появляется логотип. Open Matte-версия фильма имеет большее наполнение кадра по сравнению с Blu-ray. Большинство сцен обрезано по бокам ***Сравнения => BD vs WEB-DL Open Matte
[+] M/Ix264 : frame I:855 Avg QP:13.28 size: 45269 x264 : frame P:37272 Avg QP:17.57 size: 15572 x264 : frame B:96790 Avg QP:19.04 size: 6431 x264 : consecutive B-frames: 5.0% 7.2% 13.5% 30.3% 16.6% 20.8% 3.3% 1.3% 0.6% 0.3% 0.2% 0.2% 0.9% General Format : Matroska Format version : Version 4 File size : 1.45 GiB Duration : 1 h 33 min Overall bit rate : 2 215 kb/s Movie name : Чужие против Хищника -Реквием.(2006).WEB-DLRip-AVC.O.M.T.C. Encoded date : UTC 2019-11-29 17:00:32 Writing application : mkvmerge v40.0.0 ('Old Town Road + Pony') 64-bit Writing library : libebml v1.3.9 + libmatroska v1.5.2 Attachments : poster.jpg / poster 2.jpg Video ID : 1 Format : AVC Format/Info : Advanced Video Codec Format profile : High@L4.1 Format settings : CABAC / 12 Ref Frames Format settings, CABAC : Yes Format settings, Reference : 12 frames Codec ID : V_MPEG4/ISO/AVC Duration : 1 h 33 min Bit rate : 1 766 kb/s Width : 1 024 pixels Height : 576 pixels Display aspect ratio : 16:9 Frame rate mode : Constant Frame rate : 23.976 (24000/1001) FPS Color space : YUV Chroma subsampling : 4:2:0 Bit depth : 8 bits Scan type : Progressive Bits/(Pixel*Frame) : 0.125 Stream size : 1.16 GiB (80%) Title : RIP_BY_-=DoMiNo=- Writing library : x264 core 152 r2851kMod ba24899 Encoding settings : cabac=1 / ref=12 / deblock=1:-3:-3 / analyse=0x3:0x133 / me=umh / subme=11 / psy=1 / fade_compensate=0.00 / psy_rd=1.00:0.15 / mixed_ref=1 / me_range=48 / chroma_me=1 / trellis=2 / 8x8dct=1 / cqm=0 / deadzone=21,11 / fast_pskip=0 / chroma_qp_offset=-3 / threads=6 / lookahead_threads=1 / sliced_threads=0 / nr=0 / decimate=0 / interlaced=0 / bluray_compat=0 / constrained_intra=0 / bframes=12 / b_pyramid=2 / b_adapt=2 / b_bias=0 / direct=3 / weightb=1 / open_gop=0 / weightp=2 / keyint=250 / keyint_min=23 / scenecut=40 / intra_refresh=0 / rc_lookahead=60 / rc=2pass / mbtree=1 / bitrate=1766 / ratetol=1.0 / qcomp=0.65 / qpmin=0 / qpmax=69 / qpstep=4 / cplxblur=20.0 / qblur=0.5 / vbv_maxrate=50000 / vbv_bufsize=62500 / nal_hrd=none / filler=0 / ip_ratio=1.40 / aq=3:1.00 Language : English Default : Yes Forced : No Audio ID : 2 Format : AC-3 Format/Info : Audio Coding 3 Commercial name : Dolby Digital Codec ID : A_AC3 Duration : 1 h 33 min Bit rate mode : Constant Bit rate : 448 kb/s Channel(s) : 6 channels Channel layout : L R C LFE Ls Rs Sampling rate : 48.0 kHz Frame rate : 31.250 FPS (1536 SPF) Compression mode : Lossy Stream size : 300 MiB (20%) Title : DUB Service kind : Complete Main Default : Yes Forced : No Text #1 ID : 3 Format : UTF-8 Codec ID : S_TEXT/UTF8 Codec ID/Info : UTF-8 Plain Text Duration : 1 h 24 min Bit rate : 37 b/s Count of elements : 501 Stream size : 23.5 KiB (0%) Language : Russian Default : No Forced : No Text #2 ID : 4 Format : UTF-8 Codec ID : S_TEXT/UTF8 Codec ID/Info : UTF-8 Plain Text Duration : 1 h 24 min Bit rate : 32 b/s Count of elements : 550 Stream size : 20.1 KiB (0%) Language : English Default : No Forced : No Menu 00:00:00.000 : :Глава 01 00:05:00.000 : :Глава 02 00:10:00.000 : :Глава 03 00:15:00.000 : :Глава 04 00:20:00.000 : :Глава 05 00:25:00.000 : :Глава 06 00:30:00.000 : :Глава 07 00:35:00.000 : :Глава 08 00:40:00.000 : :Глава 09 00:45:00.000 : :Глава 10 00:50:00.000 : :Глава 11 00:55:00.000 : :Глава 12 01:00:00.000 : :Глава 13 01:05:00.000 : :Глава 14 01:10:00.000 : :Глава 15 01:15:00.000 : :Глава 16 01:20:00.000 : :Глава 17 01:25:00.000 : :Глава 18 01:30:00.000 : :Глава 19
[+] Скриншоты

Всего файлов в раздаче: 1 
Чужие против Хищника -Реквием.(2006).WEB-DLRip-AVC.O.M.T.C.[-=DoMiNo=-].mkv1.45 GB

Похожие раздачи по запросу - Чужие
2024-03-02 magnet Мы всем чужие / All of Us Strangers (2023) WEB-DL 2160p | 4K | HDR10+ | P | NewStudio 11.63 GB ↑ 0 ↓ 0
2024-03-01 magnet Мы всем чужие / All of Us Strangers (2023) WEB-DLRip от MegaPeer | P | NewStudio 1.46 GB ↑ 0 ↓ 0
2024-03-01 magnet Мы всем чужие / All of Us Strangers (2023) WEB-DL 1080p | P | NewStudio 7.57 GB ↑ 0 ↓ 0
2024-02-01 magnet Бутырка - Отсижу за чужие дела (2024) MP3 186.09 MB ↑ 0 ↓ 0
2023-11-07 magnet Валерий Шарапов - Чужие грехи (2023) MP3 388.08 MB ↑ 0 ↓ 0

Комментарии

mussik111
Эта часть полный шлак. Ещё и изображение затемнённое, обработанное на компьютере. Так же затемняли Гарри Поттера, начиная с третьей части.


Зарегистрируйтесь чтобы добавить комментарий
Торрент клиент
byTorrent - программа для загрузки торрент-файлов.

Скачать byTorrent.exe (1,5 МБ)

Скачать byTorrent.zip (0,6 МБ)

Поддержи torrent.by
российских рублей
(300 российских рублей это 4$)

Обратная связь rss

End game ©