↑↓torrent.by
Поиск
Логин:  Регистрация
Пароль:

Очевидное невероятное [01-06 из 10] (2024) WEBRip 1080p

download Скачать торрент-файл   magnet Магнитная ссылка Размер: 6.05 GB Добавлен: 2024-02-10 05:00
Пиры будут получены из сети DHT
Последний сидер был замечен 2024-02-20 16:44
Оригинальное название: Очевидное невероятное Год выпуска: 2024 Жанр: Комедия, фантастика Режиссер: Александр Войтинский В ролях: Артём Быстров, Максим Лагашкин, Светлана Ходченкова, Павел Любимцев, Илья Виногорский, Александр Нестеров, Екатерина Кабак, Антон Морозов, Алиса Лозовская, Александр Цыганов, Ирина Крючкова, Степан Летковский, Владимир Якимов, Денис Козинец, Любовь Тервинская О сериале: На первый взгляд, Великий Гусляр кажется ничем не примечательным городком, но на деле это самое необычное место на планете. Только здесь можно без проблем пообщаться с инопланетными существами, поговорить с животными, телепортироваться в другие измерения и даже попутешествовать во времени! Местные жители привыкли к аномалиям и спокойно реагируют даже на самые невероятные происшествия. Единственное, что может испортить день гуслярцу - это надоедливый турист, желающий заработать на эксклюзивном материале об обнаруженных чудесах. Из-за нового мэра Белинского, решившего превратить город в туристический центр, размеренный быт жителей Великого Гусляра оказывается под угрозой. Чтобы сохранить покой и независимость, обитатели необычной местности решают убедить мэра, что в городе не происходит ничего экстраординарного. Но так ли это просто, как кажется на первый взгляд? Страна: Россия Студия: Кинокомпания "Медиаслово", "Okko" Продолжительность: ~ 00:29:56 Файл Формат: MKV Качество: WEBRip 1080p Видео: MPEG-4 AVC, 5000 Кбит/с, 1920x1080 Аудио: Русский (AC3, 6 ch, 384 Кбит/с), (E-AC3, 6 ch, 384 Кбит/с) Язык: Русский Cубтитры: Нет
[+] MIGeneral Unique ID : 319026838951780300268920855224288296388 (0xF002558F71DDBCFCD7A477F099743DC4) Complete name : Ochevidnoe.neverojatnoe.S01.E01.WEB-DL.1080p.MrMittens.mkv Format : Matroska Format version : Version 4 / Version 2 File size : 1.20 GiB Duration : 29 min 56 s Overall bit rate : 5 762 kb/s Encoded date : UTC 2024-01-24 21:23:55 Writing application : mkvmerge v43.0.0 ('The Quartermaster') 64-bit Writing library : libebml v1.3.10 + libmatroska v1.5.2 Video ID : 1 Format : AVC Format/Info : Advanced Video Codec Format profile : High@L4 Format settings : CABAC / 3 Ref Frames Format settings, CABAC : Yes Format settings, ReFrames : 3 frames Codec ID : V_MPEG4/ISO/AVC Duration : 29 min 56 s Bit rate : 5 000 kb/s Width : 1 920 pixels Height : 1 080 pixels Display aspect ratio : 16:9 Frame rate mode : Constant Frame rate : 25.000 FPS Color space : YUV Chroma subsampling : 4:2:0 Bit depth : 8 bits Scan type : Progressive Bits/(Pixel*Frame) : 0.096 Stream size : 1.04 GiB (87%) Writing library : x264 core 164 r3095 baee400 Encoding settings : cabac=1 / ref=4 / deblock=1:-1:-1 / analyse=0x3:0x133 / me=umh / subme=9 / psy=1 / psy_rd=0.40:1.00 / mixed_ref=1 / me_range=24 / chroma_me=1 / trellis=0 / 8x8dct=1 / cqm=0 / deadzone=21,11 / fast_pskip=1 / chroma_qp_offset=-2 / threads=3 / lookahead_threads=1 / sliced_threads=0 / nr=0 / decimate=1 / interlaced=0 / bluray_compat=0 / stitchable=1 / constrained_intra=0 / bframes=8 / b_pyramid=1 / b_adapt=0 / b_bias=0 / direct=3 / weightb=1 / open_gop=0 / weightp=2 / keyint=75 / keyint_min=38 / scenecut=0 / intra_refresh=0 / rc_lookahead=40 / rc=2pass / mbtree=1 / bitrate=5000 / ratetol=1.0 / qcomp=0.80 / qpmin=1 / qpmax=69 / qpstep=4 / cplxblur=20.0 / qblur=0.5 / vbv_maxrate=7500 / vbv_bufsize=10000 / nal_hrd=none / filler=0 / ip_ratio=1.40 / aq=1:1.00 Language : English Default : Yes Forced : No Color range : Limited Color primaries : BT.709 Transfer characteristics : BT.709 Matrix coefficients : BT.709 Audio #1 ID : 2 Format : AC-3 Format/Info : Audio Coding 3 Codec ID : A_AC3 Duration : 29 min 56 s Bit rate mode : Constant Bit rate : 384 kb/s Channel(s) : 6 channels Channel positions : Front: L C R, Side: L R, LFE Sampling rate : 48.0 kHz Frame rate : 31.250 FPS (1536 SPF) Bit depth : 16 bits Compression mode : Lossy Stream size : 82.2 MiB (7%) Title : AC3 | 5.1 Language : Russian Service kind : Complete Main Default : Yes Forced : No Audio #2 ID : 3 Format : E-AC-3 Format/Info : Enhanced Audio Coding 3 Codec ID : A_EAC3 Duration : 29 min 56 s Bit rate mode : Constant Bit rate : 384 kb/s Channel(s) : 6 channels Channel positions : Front: L C R, Side: L R, LFE Sampling rate : 48.0 kHz Frame rate : 187.500 FPS (256 SPF) Compression mode : Lossy Stream size : 82.2 MiB (7%) Title : E-AC3 | 5.1 Language : Russian Service kind : Complete Main Default : No Forced : No
[+] Скриншоты

Всего файлов в раздаче: 6 
Ochevidnoe.neverojatnoe.S01.E01.WEB-DL.1080p.MrMittens.mkv1.20 GB
Ochevidnoe.neverojatnoe.S01.E02.WEB-DL.1080p.MrMittens.mkv959.14 MB
Ochevidnoe.neverojatnoe.S01.E03.WEB-DL.1080p.MrMittens.mkv897.57 MB
Ochevidnoe.neverojatnoe.S01.E04.WEB-DL.1080p.MrMittens.mkv1.16 GB
Ochevidnoe.neverojatnoe.S01.E05.WEB-DL.1080p.MrMittens.mkv1014.10 MB
Ochevidnoe.neverojatnoe.S01.E06.WEB-DL.1080p.MrMittens.mkv905.25 MB

Похожие раздачи по запросу - Очевидное
Сегодня magnet Очевидное невероятное [01-08 из 10] (2024) WEBRip 1080p 7.91 GB ↑ 0 ↓ 0
Вчера magnet Очевидное невероятное [01-08 из 10] (2024) WEBRip-AVC от Files-x 2К2.73 GB ↑ 0 ↓ 1
Вчера magnet Очевидное невероятное [01-08 из 10] (2024) WEBRip 1К2.80 GB ↑ 0 ↓ 0
2024-02-15 magnet Очевидное невероятное [01-07 из 10] (2024) WEBRip 1080p 6.99 GB ↑ 0 ↓ 0
2024-02-15 magnet Очевидное невероятное [01-07 из 10] (2024) WEBRip-AVC от Files-x 2.41 GB ↑ 0 ↓ 0
2024-02-15 magnet Очевидное невероятное [01-07 из 10] (2024) WEBRip-HEVC 2160p | 4K | SDR 14.86 GB ↑ 0 ↓ 0
2024-02-15 magnet Очевидное невероятное [01-07 из 10] (2024) WEBRip 1К2.47 GB ↑ 0 ↓ 0

Комментарии

fwep
раздача супер 10, сериал пустышка....

shelutik
Очень не интересно! Высосано из пальца

ScorpionBlack
Глянул первую серию, скучно и совсем неинтересно. Галиматья какая-то, и юмора не заметил, колхоз ток полный. Ну хз, может попробую дальше осилить... Оценка раздаче!


Зарегистрируйтесь чтобы добавить комментарий
Торрент клиент
byTorrent - программа для загрузки торрент-файлов.

Скачать byTorrent.exe (1,5 МБ)

Скачать byTorrent.zip (0,6 МБ)

Поддержи torrent.by
российских рублей
(300 российских рублей это 4$)

Обратная связь rss

End game ©