↑↓torrent.by
Поиск
Логин:  Регистрация
Пароль:

Прелесть / Гнать [01-05 из 06] (2023) WEBRip

download Скачать торрент-файл   magnet Магнитная ссылка Размер: 2.43 GB Добавлен: 2024-02-10 05:00
Пиры будут получены из сети DHT
Последний сидер был замечен 2024-02-13 14:23
Информация о сериале Оригинальное название: Прелесть / Гнать Год выпуска: 2023 Жанр: Драма, криминал Режиссер: Динар Гарипов В ролях: Олег Меньшиков, Филипп Янковский, Фёдор Федотов (II), Елизавета Кононова, Максим Коновалов, Назар Сафонов, Вера Панфилова, Олег Васильков, Анатолий Горячев, Константин Мурзенко, Екатерина Стулова, Игорь Черневич, Полина Сапрыкина, Александра Дроздова О сериале: 25-летний автоугонщик Цыган живет в провинциальном городе, центром которого является завод по переработке драгоценных металлов. 20 лет назад на этом заводе погиб его отец, якобы замешанный в хищении золотых слитков. Следствие спустило дело на тормозах, поэтому Цыган жаждет найти убийцу и отомстить за отца, которого он толком и не помнит. Когда в городе объявляется бывший директор завода и негласный хозяин города Леонид Максимович, необходимо объединить усилия, чтобы докопаться до правды и совершить правосудие - каждый понимает его по-разному. Страна: Россия Студия: Кинокомпания "Good Story Media", "PREMIER" Продолжительность: ~ 00:46:00 Язык: Русский Субтитры: Нет Файл Качество: WEBRip - sandernew Формат: AVI Видео кодек: XviD Аудио кодек: AC3 Видео: 720x304 (2.37:1), 25 fps, XviD ~1500 kbps avg, 0.274 bit/pixel Аудио: AC3, 2 ch, 192 kbps, 16 bits, 48.0 KHz
[+] MIGeneral Complete name : W:Prelest.S01.WEB-DLRipPrelest.S01.E01.WEB-DLRip.avi Format : AVI Format/Info : Audio Video Interleave File size : 566 MiB Duration : 46 min 30 s Overall bit rate : 1 701 kb/s Writing application : VirtualDubMod 1.5.10.3 | www.virtualdub-fr.org || (build 2550/release) Writing library : VirtualDubMod build 2550/release Video ID : 0 Format : MPEG-4 Visual Format profile : Advanced Simple@L5 Format settings : BVOP1 / Custom Matrix Format settings, BVOP : 1 Format settings, QPel : No Format settings, GMC : No warppoints Format settings, Matrix : Custom Codec ID : XVID Codec ID/Hint : XviD Duration : 46 min 30 s Bit rate : 1 499 kb/s Width : 720 pixels Height : 304 pixels Display aspect ratio : 2.35:1 Frame rate : 25.000 FPS Color space : YUV Chroma subsampling : 4:2:0 Bit depth : 8 bits Scan type : Progressive Compression mode : Lossy Bits/(Pixel*Frame) : 0.274 Stream size : 499 MiB (88%) Writing library : XviD 73 Audio ID : 1 Format : AC-3 Format/Info : Audio Coding 3 Codec ID : 2000 Duration : 46 min 30 s Bit rate mode : Constant Bit rate : 192 kb/s Channel(s) : 2 channels Channel positions : Front: L R Sampling rate : 48.0 kHz Frame rate : 31.250 FPS (1536 SPF) Bit depth : 16 bits Compression mode : Lossy Stream size : 63.9 MiB (11%) Alignment : Split accross interleaves Interleave, duration : 40 ms (1.00 video frame) Interleave, preload duratio : 500 ms Service kind : Complete Main
[+] Скриншоты

Всего файлов в раздаче: 5 
Prelest.S01.E01.WEB-DLRip.avi565.69 MB
Prelest.S01.E02.WEB-DLRip.avi426.23 MB
Prelest.S01.E03.WEB-DLRip.avi591.11 MB
Prelest.S01.E04.WEB-DLRip.avi490.09 MB
Prelest.S01.E05.WEB-DLRip.avi414.39 MB

Похожие раздачи по запросу - Прелесть
2024-02-15 magnet Прелесть / Гнать [S01] (2023) WEBRip 1080p 9.23 GB ↑ 0 ↓ 0
2024-02-15 magnet Прелесть / Гнать [S01] (2023) WEBRip 2.92 GB ↑ 0 ↓ 0
2024-02-14 magnet Прелесть / Гнать [01-05 из 06] (2023) WEB-DLRip-AVC от Generalfilm | КПК 1.05 GB ↑ 0 ↓ 0
2024-02-10 magnet Прелесть / Гнать [01-05 из 06] (2023) WEB-DLRip-AVC от Files-х 1К2.98 GB ↑ 0 ↓ 0
2024-02-10 magnet Прелесть / Гнать [01-05 из 06] (2023) WEBRip 1080p 2К7.67 GB ↑ 0 ↓ 0
2024-02-02 magnet Прелесть / Гнать [01-04 из 06] (2023) WEB-DLRip-AVC от Files-х 1К2.43 GB ↑ 0 ↓ 0
2024-02-01 magnet Прелесть / Гнать [01-04 из 06] (2023) WEBRip 1080p 1К6.26 GB ↑ 0 ↓ 0

Комментарии


Зарегистрируйтесь чтобы добавить комментарий
Торрент клиент
byTorrent - программа для загрузки торрент-файлов.

Скачать byTorrent.exe (1,5 МБ)

Скачать byTorrent.zip (0,6 МБ)

Поддержи torrent.by
российских рублей
(300 российских рублей это 4$)

Обратная связь rss

End game ©