↑↓torrent.by
Поиск
Логин:  Регистрация
Пароль:

Кто угодно, кроме тебя / Anyone But You (2023) WEB-DLRip-AVC | КПК | P

download Скачать торрент-файл   magnet Магнитная ссылка Размер: 493.50 MB Добавлен: 2024-02-10 05:00
Пиры будут получены из сети DHT
Последний сидер был замечен 2024-02-25 12:37
Информация о фильме Название: Кто угодно, кроме тебя Оригинальное название: Anyone But You Год выхода: 2023 Жанр: комедия, мелодрама Режиссер: Уилл Глак В ролях: Сидни Суини, Глен Пауэлл, Александра Шипп, Даррен Барнет, Брайан Браун, Джо Дэвидсон, Гата, Рэйчел Гриффитс, Мишель Херд, Дермот Малруни, Хэдли Робинсон О фильме: После первого свидания взаимная симпатия между Би и Беном быстро перерастает в ненависть. Однако, оказавшись гостями на свадьбе, они решают притвориться парой. 18+ (зрителям, достигшим 18 лет) Страна: США, Австралия Студия: Australian Government, Fifty-Fifty Films, Olive Bridge Entertainment Продолжительность: 01:43:29 Перевод: Профессиональный (многоголосый, закадровый) | Лицензия Файл Формат: MPEG-4 Base Media Качество: WEB-DLRip 360p (исх. WEB-DL 1080p) Видео: AVC, 640x268 (2.39:1), at 23.976 fps, 600 kbps Аудио: AAC LC SBR (HE-AAC), 48.0 kHz, 2 ch, 64 kbps Субтитры: none
[+] MediaInfoGeneral Complete name : Anyone.But.You.2023.MVO.WEB-DLRip.mp4 Format : MPEG-4 Format profile : Base Media Codec ID : isom (isom/avc1) File size : 494 MiB Duration : 1 h 43 min Overall bit rate mode : Variable Overall bit rate : 667 kb/s Encoded date : UTC 2024-02-08 18:08:33 Tagged date : UTC 2024-02-08 18:08:33 Video ID : 1 Format : AVC Format/Info : Advanced Video Codec Format profile : High@L3.2 Format settings : CABAC / 12 Ref Frames Format settings, CABAC : Yes Format settings, RefFrames : 12 frames Codec ID : avc1 Codec ID/Info : Advanced Video Coding Duration : 1 h 43 min Bit rate : 600 kb/s Maximum bit rate : 3 037 kb/s Width : 640 pixels Height : 268 pixels Display aspect ratio : 2.40:1 Frame rate mode : Constant Frame rate : 23.976 (24000/1001) FPS Color space : YUV Chroma subsampling : 4:2:0 Bit depth : 8 bits Scan type : Progressive Bits/(Pixel*Frame) : 0.146 Stream size : 444 MiB (90%) Writing library : x264 core 152 r2851 ba24899 Encoding settings : cabac=1 / ref=12 / deblock=1:0:0 / analyse=0x3:0x133 / me=umh / subme=10 / psy=1 / psy_rd=1.00:0.00 / mixed_ref=1 / me_range=24 / chroma_me=1 / trellis=2 / 8x8dct=1 / cqm=0 / deadzone=21,11 / fast_pskip=0 / chroma_qp_offset=-2 / threads=6 / lookahead_threads=1 / sliced_threads=0 / nr=0 / decimate=0 / interlaced=0 / bluray_compat=0 / constrained_intra=0 / bframes=10 / b_pyramid=2 / b_adapt=2 / b_bias=0 / direct=3 / weightb=1 / open_gop=0 / weightp=2 / keyint=240 / keyint_min=23 / scenecut=40 / intra_refresh=0 / rc=2pass / mbtree=0 / bitrate=600 / ratetol=1.0 / qcomp=0.70 / qpmin=0 / qpmax=69 / qpstep=4 / cplxblur=20.0 / qblur=0.5 / ip_ratio=1.25 / pb_ratio=1.35 / aq=1:1.00 Language : English Encoded date : UTC 2024-02-08 18:08:33 Tagged date : UTC 2024-02-08 18:08:55 Codec configuration box : avcC Audio ID : 2 Format : AAC LC SBR Format/Info : Advanced Audio Codec Low Complexity with Spectral Band Replication Commercial name : HE-AAC Format settings : Explicit Codec ID : mp4a-40-2 Duration : 1 h 43 min Bit rate mode : Variable Bit rate : 64.0 kb/s Maximum bit rate : 193 kb/s Channel(s) : 2 channels Channel layout : L R Sampling rate : 48.0 kHz Frame rate : 23.438 FPS (2048 SPF) Compression mode : Lossy Stream size : 47.4 MiB (10%) Title : MVO Language : Russian Encoded date : UTC 2024-02-08 18:08:51 Tagged date : UTC 2024-02-08 18:08:55
[+] Скриншоты

Всего файлов в раздаче: 1 
Anyone.But.You.2023.MVO.WEB-DLRip.mp4493.50 MB

Похожие раздачи по запросу - Кто
2024-02-24 magnet Кто их пригласил? / Who Invited Them (2022) BDRip от MegaPeer | P | Jaskier 1.46 GB ↑ 0 ↓ 0
2024-02-23 magnet Угадай, кто? / Guess Who (2024) WEB-DL 720p | L1 1.61 GB ↑ 0 ↓ 0
2024-02-15 magnet Тот, кто смотрит / Stranger in the Woods (2024) WEB-DLRip-AVC от DoMiNo & селезень | D 1.15 GB ↑ 0 ↓ 0
2024-02-15 magnet Тот, кто смотрит / Stranger in the Woods (2024) WEB-DL 1080p от селезень | D 3.17 GB ↑ 0 ↓ 0
2024-02-15 magnet Тот, кто смотрит / Stranger in the Woods (2024) UHD WEB-DL-HEVC 2160p от селезень | 4K | SDR | D 6.93 GB ↑ 0 ↓ 0
2024-02-15 magnet Тот, кто смотрит / Stranger in the Woods (2024) WEB-DLRip от ELEKTRI4KA | D 1.37 GB ↑ 0 ↓ 0
2024-02-08 magnet Кто угодно, кроме тебя / Anyone But You (2023) WEB-DLRip 720p от DoMiNo & селезень | P 2.68 GB ↑ 0 ↓ 0

Комментарии


Зарегистрируйтесь чтобы добавить комментарий
Торрент клиент
byTorrent - программа для загрузки торрент-файлов.

Скачать byTorrent.exe (1,5 МБ)

Скачать byTorrent.zip (0,6 МБ)

Поддержи torrent.by
российских рублей
(300 российских рублей это 4$)

Обратная связь rss

End game ©