↑↓torrent.by
Поиск
Логин:  Регистрация
Пароль:

Тысячелетие / Миллениум / Millennium (1989) BDRip 720p | D, P

download Скачать торрент-файл   magnet Магнитная ссылка Размер: 4.78 GB Добавлен: 2024-02-10 05:00
Пиры будут получены из сети DHT
Последний сидер был замечен 2024-02-10 16:20
Информация о фильме Название: Миллениум Оригинальное название: Millennium Год выхода: 1989 Жанр: фантастика, триллер, драма, детектив Режиссер: Майкл Андерсон В ролях: Крис Кристофферсон, Шерил Лэдд, Дэниел Дж. Траванти, Роберт Джой, Ллойд Бокнер, Брент Карвер, Дэвид Макилрайт, Мори Чайкин, Эл Уоксмен, Лоуренс Дэйн Далекое будущее. Земная цивилизация, состоящая из неспособных на продолжение рода мутантов, находится на грани вымирания. Единственное решение для спасения человечества - в его прошлом. С помощью Ворот Времени спец отряды из будущего похищают пассажиров с самолетов за несколько секунд до крушения, заменяя их искусственными телами. Долгое время в нашем столетии ничего не подозревают, но тайное не может оставаться таковым вечно. Страна: США Продолжительность: 01:45:43 Перевод: Перевод 1: Профессиональный (дублированный) Киностудия "Мосфильм" Перевод 2: Профессиональный (двухголосый закадровый) ОРТ Перевод 3: Профессиональный (двухголосый закадровый) П. Гланц и И. Королёва Файл Кодек: x264 / AC3 Качество: BDRip Видео: 1 MPEG-4 AVC, 5709 Кбит/с, 1280x694 Аудио 1: русский, AC3, 192 kbps, 2 ch, 48 kHz Аудио 3: русский, AC3, 192 kbps, 2 ch, 48 kHz Аудио 3: русский, AC3, 192 kbps, 2 ch, 48 kHz Аудио 4: английский, AC3, 192 kbps, 2 ch, 48 kHz Субтитры: английские Главы/чаптеры
[+] Скриншоты
[+] MediaInfoОбщее Уникальный идентификатор : 208308497135714350468641927920916739059 (0x9CB6C1D9D9F0CEAB864202AF0535B3F3) Полное имя : D:VideoТысячелетие.1989.BDRip.720p by msltel.mkv Формат : Matroska Версия формата : Version 4 / Version 2 Размер файла : 4,78 Гбайт Продолжительность : 1 ч. 45 м. Общий поток : 6479 Кбит/сек Название фильма : Rip by msltel Дата кодирования : UTC 2018-06-02 11:15:02 Программа кодирования : mkvmerge v8.2.0 ('World of Adventure') 64bit Библиотека кодирования : libebml v1.3.1 + libmatroska v1.4.2 Видео Идентификатор : 1 Формат : AVC Формат/Информация : Advanced Video Codec Профиль формата : High@L4.1 Настройки формата : CABAC / 9 Ref Frames Параметр CABAC формата : Да Параметр RefFrames формата : 9 кадров Идентификатор кодека : V_MPEG4/ISO/AVC Продолжительность : 1 ч. 45 м. Битрейт : 5709 Кбит/сек Ширина : 1280 пикселей Высота : 694 пикселя Соотношение сторон : 1,85:1 Режим частоты кадров : Постоянный Частота кадров : 23,976 (24000/1001) кадра/сек Цветовое пространство : YUV Субдискретизация насыщенности : 4:2:0 Битовая глубина : 8 бит Тип развёртки : Прогрессивная Бит/(Пиксели*Кадры) : 0.268 Размер потока : 4,21 Гбайт (88%) Библиотека кодирования : x264 core 146 r2538 121396c Настройки программы : cabac=1 / ref=9 / deblock=1:-3:-2 / analyse=0x3:0x113 / me=umh / subme=11 / psy=1 / psy_rd=1.00:0.15 / mixed_ref=1 / me_range=32 / chroma_me=1 / trellis=2 / 8x8dct=1 / cqm=0 / deadzone=21,11 / fast_pskip=0 / chroma_qp_offset=-3 / threads=6 / lookahead_threads=1 / sliced_threads=0 / nr=0 / decimate=1 / interlaced=0 / bluray_compat=0 / constrained_intra=0 / bframes=10 / b_pyramid=2 / b_adapt=2 / b_bias=0 / direct=1 / weightb=1 / open_gop=0 / weightp=2 / keyint=230 / keyint_min=23 / scenecut=40 / intra_refresh=0 / rc_lookahead=40 / rc=crf / mbtree=0 / crf=19.4 / qcomp=0.60 / qpmin=0 / qpmax=69 / qpstep=4 / vbv_maxrate=62500 / vbv_bufsize=78125 / crf_max=0.0 / nal_hrd=none / filler=0 / ip_ratio=1.40 / pb_ratio=1.30 / aq=1:1.00 Язык : English Default : Нет Forced : Нет Аудио #1 Идентификатор : 2 Формат : AC-3 Формат/Информация : Audio Coding 3 Идентификатор кодека : A_AC3 Продолжительность : 1 ч. 45 м. Вид битрейта : Постоянный Битрейт : 192 Кбит/сек Каналы : 2 канала Расположение каналов : Front: L R Частота : 48,0 КГц Частота кадров : 31,250 кадров/сек (1536 SPF) Битовая глубина : 16 бит Метод сжатия : С потерями Размер потока : 145 Мбайт (3%) Заголовок : DUB Мосфильм Язык : Russian ServiceKind/String : Complete Main Default : Да Forced : Нет Аудио #2 Идентификатор : 3 Формат : AC-3 Формат/Информация : Audio Coding 3 Идентификатор кодека : A_AC3 Продолжительность : 1 ч. 45 м. Вид битрейта : Постоянный Битрейт : 192 Кбит/сек Каналы : 2 канала Расположение каналов : Front: L R Частота : 48,0 КГц Частота кадров : 31,250 кадров/сек (1536 SPF) Битовая глубина : 16 бит Метод сжатия : С потерями Размер потока : 145 Мбайт (3%) Заголовок : DVO OPT Язык : Russian ServiceKind/String : Complete Main Default : Нет Forced : Нет Аудио #3 Идентификатор : 4 Формат : AC-3 Формат/Информация : Audio Coding 3 Идентификатор кодека : A_AC3 Продолжительность : 1 ч. 45 м. Вид битрейта : Постоянный Битрейт : 192 Кбит/сек Каналы : 2 канала Расположение каналов : Front: L R Частота : 48,0 КГц Частота кадров : 31,250 кадров/сек (1536 SPF) Битовая глубина : 16 бит Метод сжатия : С потерями Размер потока : 145 Мбайт (3%) Заголовок : DVO Пётр Гланц и Инна Королёва Язык : Russian ServiceKind/String : Complete Main Default : Нет Forced : Нет Аудио #4 Идентификатор : 5 Формат : AC-3 Формат/Информация : Audio Coding 3 Идентификатор кодека : A_AC3 Продолжительность : 1 ч. 45 м. Вид битрейта : Постоянный Битрейт : 192 Кбит/сек Каналы : 2 канала Расположение каналов : Front: L R Частота : 48,0 КГц Частота кадров : 31,250 кадров/сек (1536 SPF) Битовая глубина : 16 бит Метод сжатия : С потерями Размер потока : 145 Мбайт (3%) Заголовок : original Язык : English ServiceKind/String : Complete Main Default : Нет Forced : Нет Текст Идентификатор : 6 Формат : UTF-8 Идентификатор кодека : S_TEXT/UTF8 Идентификатор кодека/Информация : UTF-8 Plain Text Продолжительность : 1 ч. 45 м. Битрейт : 58 бит/сек ElementCount : 1413 Размер потока : 45,0 Кбайт (0%) Заголовок : английские Язык : English Default : Нет Forced : Нет Меню 00:00:00.000 : :Chapter 01 00:12:42.886 : :Chapter 02 00:27:54.130 : :Chapter 03 00:44:28.289 : :Chapter 04 00:58:48.064 : :Chapter 05 01:11:30.368 : :Chapter 06 01:24:51.836 : :Chapter 07 01:40:38.698 : :Chapter 08

Всего файлов в раздаче: 1 
Тысячелетие.1989.BDRip.720p by msltel.mkv4.78 GB

Похожие раздачи по запросу - Тысячелетие
2024-02-09 magnet Тысячелетие / Millennium (1989) BDRip 1080p от Веселый Гном | D, P2 1К11.15 GB ↑ 0 ↓ 0
2024-02-09 magnet Тысячелетие / Прерванный полет / Millennium (1989) BDRip-AVC | D, P2 1К2.46 GB ↑ 0 ↓ 0
2024-02-09 magnet Тысячелетие / Миллениум / Millennium (1989) HDRip-AVC от DoMiNo | D 1К744.47 MB ↑ 0 ↓ 0

Комментарии

saniek1967
Помню этот фильм, задумка в начале неплохая, сцена с самолётом и похищением вполне приличная, но дальше заурядный трэш в стиле асилума.


Зарегистрируйтесь чтобы добавить комментарий
Торрент клиент
byTorrent - программа для загрузки торрент-файлов.

Скачать byTorrent.exe (1,5 МБ)

Скачать byTorrent.zip (0,6 МБ)

Поддержи torrent.by
российских рублей
(300 российских рублей это 4$)

Обратная связь rss

End game ©