↑↓torrent.by
Поиск
Логин:  Регистрация
Пароль:

Анализируй это / Analyze This (1999) BDRip 720p | D, A

download Скачать торрент-файл   magnet Магнитная ссылка Размер: 6.60 GB Добавлен: 2024-02-10 05:00
Пиры будут получены из сети DHT
Последний сидер был замечен 2024-02-10 16:20
Информация о фильме Название: Анализируй это Оригинальное название: Analyze This Год выхода: 1999 Жанр: комедия, криминал Режиссер: Харольд Рэмис В ролях: Роберт Де Ниро, Билли Кристал, Лиза Кудроу, Чазз Пальминтери, Джо Витерелли, Молли Шеннон, Кайл Сабихи, Макс Казелла, Билл Мэйси, Ребекка Шалл О фильме: Пол Витти — влиятельный нью-йоркский мафиози на грани нервного срыва. Все гангстеры в шоке: как помочь своему чокнутому боссу? Бен Соболь — обычный психоаналитик. У него есть всего несколько дней на то, чтобы помочь крестному отцу справиться с депрессией. Страна: США Студия: Village Roadshow Pictures, NPV Entertainment, Baltimore Pictures Продолжительность: 01:43:30 Перевод: Профессиональный (дублированный) Blu-ray CEE + Авторский (одноголосый, закадровый) Николай Антонов + Авторский (одноголосый, закадровый) Юрий Живов + Авторский (одноголосый, закадровый) Александр Кашкин (Первомайский) + Авторский (одноголосый, закадровый) Павел Санаев + Авторский (одноголосый, закадровый) Максим Латышев Файл Формат: Matroska Видео: 1280x720 at 23.976 fps, x264@L4.1, ~6384 kbps avg Аудио#1: Russian: 48 kHz, AC3, 3/2 (L,C,R,l,r) + LFE ch, ~640 kbps avg |Дубляж, Blu-ray CEE| Аудио#2: Russian: 48 kHz, AC3, 2/0 (L,R) ch, ~192 kbps avg |Авторский, Н.Антонов| Аудио#3: Russian: 48 kHz, AC3, 3/2 (L,C,R,l,r) + LFE ch, ~448 kbps |Авторский, Ю.Живов| Аудио#4: Russian: 48 kHz, AC3, 2/0 (L,R) ch, ~192 kbps avg |Авторский, А.Кашкин (Первомайский)| Аудио#5: Russian: 48 kHz, AC3, 3/2 (L,C,R,l,r) + LFE ch, ~448 kbps |Авторский, П.Санаев | Аудио#6: Russian: 48 kHz, AC3, 2/0 (L,R) ch, ~192 kbps avg |Авторский, М.Латышев| Аудио#7: English: 48 kHz, AC3, 3/2 (L,C,R,l,r) + LFE ch, ~448 kbps avg Субтитры: Russian, English ***Внимание! В переводе Н.Антонова присутствует ненормативная лексика! ***Релиз: msltel.
[+] Знаете ли вы, что...Съёмки тюремных сцен проходили в тюрьме максимально строгого режима «Синг-Синг». В этих сценах снимали настоящих заключённых из тюремного драматического кружка. Во всех показанных в фильме ресторанах в своё время происходили бандитские разборки, за исключением ресторана Sparks Steak House, где разборка произошла на улице перед ним. Стремясь достичь как можно большей достоверности, Роберт Де Ниро и Харольд Рэмис выискивали людей для съёмок на улицах Маленькой Италии в Нью-Йорке.
[+] MediaInfoОбщее Уникальный идентификатор : 183573023243550796043307270023640403895 (0x8A1AE0D4A41B88E491A9821896824FB7) Полное имя : Анализируй это.1999.BDRip.720p.mkv Формат : Matroska Версия формата : Version 4 / Version 2 Размер файла : 6,60 Гбайт Продолжительность : 1 ч. 43 м. Общий поток : 9126 Кбит/сек Дата кодирования : UTC 2016-07-13 11:10:32 Программа кодирования : mkvmerge v8.2.0 ('World of Adventure') 64bit Библиотека кодирования : libebml v1.3.1 + libmatroska v1.4.2 Видео Идентификатор : 1 Формат : AVC Формат/Информация : Advanced Video Codec Профиль формата : High@L4.1 Параметр CABAC формата : Да Параметр ReFrames формата : 9 кадров Идентификатор кодека : V_MPEG4/ISO/AVC Продолжительность : 1 ч. 43 м. Битрейт : 6384 Кбит/сек Ширина : 1280 пикселей Высота : 720 пикселей Соотношение сторон : 16:9 Режим частоты кадров : Постоянный Частота кадров : 23,976 кадра/сек Цветовое пространство : YUV Субдискретизация насыщенности : 4:2:0 Битовая глубина : 8 бит Тип развёртки : Прогрессивная Бит/(Пиксели*Кадры) : 0.289 Размер потока : 4,62 Гбайт (70%) Библиотека кодирования : x264 core 146 r2538 121396c Настройки программы : cabac=1 / ref=9 / deblock=1:-3:-3 / analyse=0x3:0x113 / me=umh / subme=10 / psy=1 / psy_rd=1.00:0.15 / mixed_ref=1 / me_range=32 / chroma_me=1 / trellis=2 / 8x8dct=1 / cqm=0 / deadzone=21,11 / fast_pskip=1 / chroma_qp_offset=-3 / threads=6 / lookahead_threads=1 / sliced_threads=0 / nr=0 / decimate=1 / interlaced=0 / bluray_compat=0 / constrained_intra=0 / bframes=12 / b_pyramid=2 / b_adapt=2 / b_bias=0 / direct=1 / weightb=1 / open_gop=0 / weightp=2 / keyint=230 / keyint_min=23 / scenecut=40 / intra_refresh=0 / rc_lookahead=40 / rc=crf / mbtree=0 / crf=17.0 / qcomp=0.60 / qpmin=0 / qpmax=69 / qpstep=4 / vbv_maxrate=40000 / vbv_bufsize=50000 / crf_max=0.0 / nal_hrd=none / filler=0 / ip_ratio=1.40 / pb_ratio=1.30 / aq=1:1.00 Язык : English Default : Да Forced : Нет Аудио #1 Идентификатор : 2 Формат : AC-3 Формат/Информация : Audio Coding 3 Расширение режима : CM (complete main) Параметр Endianness формата : Big Идентификатор кодека : A_AC3 Продолжительность : 1 ч. 43 м. Вид битрейта : Постоянный Битрейт : 640 Кбит/сек Каналы : 6 каналов Расположение каналов : Front: L C R, Side: L R, LFE Частота : 48,0 КГц Метод сжатия : С потерями Размер потока : 474 Мбайт (7%) Заголовок : DUB Язык : Russian Default : Да Forced : Нет Аудио #2 Идентификатор : 3 Формат : AC-3 Формат/Информация : Audio Coding 3 Расширение режима : CM (complete main) Параметр Endianness формата : Big Идентификатор кодека : A_AC3 Продолжительность : 1 ч. 43 м. Вид битрейта : Постоянный Битрейт : 192 Кбит/сек Каналы : 2 канала Расположение каналов : Front: L R Частота : 48,0 КГц Метод сжатия : С потерями Размер потока : 142 Мбайт (2%) Заголовок : AVO (Николай Антонов) Язык : Russian Default : Нет Forced : Нет Аудио #3 Идентификатор : 4 Формат : AC-3 Формат/Информация : Audio Coding 3 Расширение режима : CM (complete main) Параметр Endianness формата : Big Идентификатор кодека : A_AC3 Продолжительность : 1 ч. 43 м. Вид битрейта : Постоянный Битрейт : 448 Кбит/сек Каналы : 6 каналов Расположение каналов : Front: L C R, Side: L R, LFE Частота : 48,0 КГц Метод сжатия : С потерями Размер потока : 332 Мбайт (5%) Заголовок : AVO (Юрий Живов) Язык : Russian Default : Нет Forced : Нет Аудио #4 Идентификатор : 5 Формат : AC-3 Формат/Информация : Audio Coding 3 Расширение режима : CM (complete main) Параметр Endianness формата : Big Идентификатор кодека : A_AC3 Продолжительность : 1 ч. 43 м. Вид битрейта : Постоянный Битрейт : 192 Кбит/сек Каналы : 2 канала Расположение каналов : Front: L R Частота : 48,0 КГц Метод сжатия : С потерями Размер потока : 142 Мбайт (2%) Заголовок : AVO (Александр Кашкин) Язык : Russian Default : Нет Forced : Нет Аудио #5 Идентификатор : 6 Формат : AC-3 Формат/Информация : Audio Coding 3 Расширение режима : CM (complete main) Параметр Endianness формата : Big Идентификатор кодека : A_AC3 Продолжительность : 1 ч. 43 м. Вид битрейта : Постоянный Битрейт : 448 Кбит/сек Каналы : 6 каналов Расположение каналов : Front: L C R, Side: L R, LFE Частота : 48,0 КГц Метод сжатия : С потерями Размер потока : 332 Мбайт (5%) Заголовок : AVO (Павел Санаев) Язык : Russian Default : Нет Forced : Нет Аудио #6 Идентификатор : 7 Формат : AC-3 Формат/Информация : Audio Coding 3 Расширение режима : CM (complete main) Параметр Endianness формата : Big Идентификатор кодека : A_AC3 Продолжительность : 1 ч. 43 м. Вид битрейта : Постоянный Битрейт : 192 Кбит/сек Каналы : 2 канала Расположение каналов : Front: L R Частота : 48,0 КГц Метод сжатия : С потерями Размер потока : 142 Мбайт (2%) Заголовок : профессиональный одноголосый, Максим Латышев (диктор CDV) Язык : Russian Default : Нет Forced : Нет Аудио #7 Идентификатор : 8 Формат : AC-3 Формат/Информация : Audio Coding 3 Расширение режима : CM (complete main) Параметр Endianness формата : Big Идентификатор кодека : A_AC3 Продолжительность : 1 ч. 43 м. Вид битрейта : Постоянный Битрейт : 448 Кбит/сек Каналы : 6 каналов Расположение каналов : Front: L C R, Side: L R, LFE Частота : 48,0 КГц Метод сжатия : С потерями Размер потока : 332 Мбайт (5%) Заголовок : original Язык : English Default : Нет Forced : Нет Текст #1 Идентификатор : 9 Формат : UTF-8 Идентификатор кодека : S_TEXT/UTF8 Идентификатор кодека/Информация : UTF-8 Plain Text Заголовок : русские Язык : Russian Default : Нет Forced : Нет Текст #2 Идентификатор : 10 Формат : UTF-8 Идентификатор кодека : S_TEXT/UTF8 Идентификатор кодека/Информация : UTF-8 Plain Text Заголовок : английские (для слабослышащих) Язык : English Default : Нет Forced : Нет
[+] Скриншоты

Всего файлов в раздаче: 1 
Анализируй это.1999.BDRip.720p.mkv6.60 GB

Похожие раздачи по запросу - Анализируй
2024-02-09 magnet Анализируй это / Analyze This (1999) BDRip 720p от HQ-ViDEO 5.80 GB ↑ 0 ↓ 0

Комментарии


Зарегистрируйтесь чтобы добавить комментарий
Торрент клиент
byTorrent - программа для загрузки торрент-файлов.

Скачать byTorrent.exe (1,5 МБ)

Скачать byTorrent.zip (0,6 МБ)

Поддержи torrent.by
российских рублей
(300 российских рублей это 4$)

Обратная связь rss

End game ©