↑↓torrent.by
Поиск
Логин:  Регистрация
Пароль:

Вака – заколдованный воин / Mi ni shi jie zhi jue xing / Mini Shijie Zhi Juexing / Mini World: Powers Awaken (2022) WEB-DL 1080p | D

download Скачать торрент-файл   magnet Магнитная ссылка Размер: 4.63 GB Добавлен: 2024-02-10 05:00
Пиры будут получены из сети DHT
Последний сидер был замечен вчера в 17:02
Информация о фильме Название: Вака – заколдованный воин Оригинальное название: Mi ni shi jie zhi jue xing / Mini Shijie Zhi Juexing / Mini World: Powers Awaken Год выпуска: 2022 Жанр: мультфильм, фэнтези, боевик, приключения Выпущено: Китай / Shenzhen Starup Cultural Creation Режиссер: Син Сюйхуэй В ролях: Меган Спенсер, Дилан Маккиннон, Том Кутзее, Джона Доллери, Софи Кирш, Тара Макферсон, Стефан ван дер Вегте Описание: Вака — сын героя. После битвы со злобными демонами Пустоты его отец запечатал их в Кристалл Истока. Прошло много лет, кристалл был утерян, а отец Ваки покинул этот мир. Но зло не дремлет, демоны вновь угрожают миру, и теперь только Вака со своими друзьями сможет их остановить. Они путешествуют по запретным землям, подземному миру и параллельной вселенной, сражаясь по пути с плотоядными цветами и каменными существами. Несмотря на огромный риск, Вака и его друзья не боятся опасностей и полны решимости изгнать темные силы со своей земли. Возраст: 6+ (зрителям, достигшим 6 лет) Продолжительность: 01:38:50 Перевод: Дублированный (Leff Sound) Субтитры: Отсутствуют Файл Формат: MKV Качество: WEB-DL 1080p Видео: AVC/H.264, 1920x1080, ~6140 Kbps Аудио: AC3, 6 ch, 640 Kbps - Русский (DUB) Релиз от: karfagen1975
[+] MediaInfo:General Unique ID : 101171567922070594489679470546560671631 (0x4C1CEF6A754899813C12904D565ADF8F) Complete name : Mini World Powers Awaken (2022) WEB-DL 1080p.mkv Format : Matroska Format version : Version 4 File size : 4.63 GiB Duration : 1 h 38 min Overall bit rate mode : Constant Overall bit rate : 6 715 kb/s Frame rate : 24.000 FPS Encoded date : 2024-02-09 13:26:16 UTC Writing application : mkvmerge v75.0.0 ('Goliath') 64-bit Writing library : libebml v1.4.4 + libmatroska v1.7.1 Video ID : 1 Format : AVC Format/Info : Advanced Video Codec Format profile : Constrained Baseline@L4 Format settings : 2 Ref Frames Format settings, CABAC : No Format settings, Reference frames : 2 frames Codec ID : V_MPEG4/ISO/AVC Duration : 1 h 38 min Bit rate mode : Constant Bit rate : 6 144 kb/s Width : 1 920 pixels Height : 1 080 pixels Display aspect ratio : 16:9 Frame rate mode : Constant Frame rate : 24.000 FPS Color space : YUV Chroma subsampling : 4:2:0 Bit depth : 8 bits Scan type : Progressive Bits/(Pixel*Frame) : 0.123 Stream size : 4.19 GiB (90%) Title : Вака – заколдованный воин (2022) WEB-DL 1080p Language : Chinese Default : Yes Forced : No Audio ID : 2 Format : AC-3 Format/Info : Audio Coding 3 Commercial name : Dolby Digital Codec ID : A_AC3 Duration : 1 h 38 min Bit rate mode : Constant Bit rate : 640 kb/s Channel(s) : 6 channels Channel layout : L R C LFE Ls Rs Sampling rate : 48.0 kHz Frame rate : 31.250 FPS (1536 SPF) Compression mode : Lossy Stream size : 452 MiB (10%) Title : DUB (Leff Sound) Language : Russian Service kind : Complete Main Default : Yes Forced : No
[+] Скриншоты
[+] Дополнительные скриншоты:

Всего файлов в раздаче: 1 
Mini World Powers Awaken (2022) WEB-DL 1080p.mkv4.63 GB

Похожие раздачи по запросу - Вака
2024-02-10 magnet Вака – заколдованный воин / Mi ni shi jie zhi jue xing / Mini Shijie Zhi Juexing / Mini World: Powers Awaken (2022) WEB-DLRip от MegaPeer | D 1.46 GB ↑ 0 ↓ 0

Комментарии


Зарегистрируйтесь чтобы добавить комментарий
Торрент клиент
byTorrent - программа для загрузки торрент-файлов.

Скачать byTorrent.exe (1,5 МБ)

Скачать byTorrent.zip (0,6 МБ)

Поддержи torrent.by
российских рублей
(300 российских рублей это 4$)

Обратная связь rss

End game ©